找回密码

蓝光电影网

查看: 83|回复: 0

[科幻] 狼蛛 Tarantula.1955.1080p.BluRay.X264-AMIABLE 6.63GB

[复制链接]
蓝光币
623
发表于 2020-10-28 10:35:52 | 显示全部楼层 |阅读模式


◎译  名 狼蛛
◎片  名 Tarantula
◎年  代 1955
◎产  地 美国
◎类  别 科幻 / 可骇
◎语  言 英语
◎上映日期 1955-12-14
◎IMDb评分  6.5/10 from 8553 users
◎IMDb链接  https://www.imdb.com/title/tt0048696/
◎豆瓣评分 5.8/10 from 81 users
◎豆瓣链接 https://movie.douban.com/subject/1754898/
◎片  长 80 分钟
◎导  演 杰克·阿诺德 Jack Arnold
◎编  剧 杰克·阿诺德 Jack Arnold / 罗伯特·M·弗雷斯科 Robert M. Fresco / 马丁·伯克利 Martin Berkeley
◎主  演 约翰·艾加尔 John Agar
       里奥.G.卡罗尔 Leo G. Carroll
       克林特·伊斯特伍德 Clint Eastwood
       Edwin Rand
       Vernon Rich
       Robert R. Stephenson
       杰克·斯托尼 Jack Stoney
       Rusty Wescoatt
       Bud Wolfe
       玛拉·科黛 Mara Corday
       内斯特帕瓦 Nestor Paiva
       Eddie Parker
       雷蒙德贝利 Raymond Bailey
       Dee Carroll
       汤姆·朗顿 Tom London
       罗斯·艾略特 Ross Elliott
       Bing Russell
       Steve Darrell
       Edgar Dearing
       Bert Holland
       Hank Patterson
       唐·迪拉韦 Don Dillaway
◎标  签 科幻 | 可骇 | 美国 | 克林特·伊斯特伍德 | cult | 美国电影 | Jack_Arnold | 1955
◎简  介


  本片是美国50年月一部优异的科幻片。导演Jack Arnold应用殊效,让一只小小的蜘蛛在银屏上酿成一只体形庞大的塔兰图拉毒蛛。影片中的塔兰图拉毒蛛是一只非常可怕的怪兽,它四周破坏,但始终免不了衰亡的命运。
  
  典范科幻片,激烈保举!
  1. Video
  2. ID                                       : 1
  3. Format                                   : AVC
  4. Format/Info                              : Advanced Video Codec
  5. Format profile                           : [email protected]
  6. Format settings                          : CABAC / 5 Ref Frames
  7. Format settings, CABAC                   : Yes
  8. Format settings, Reference frames        : 5 frames
  9. Codec ID                                 : V_MPEG4/ISO/AVC
  10. Duration                                 : 1 h 20 min
  11. Bit rate                                 : 10.2 Mb/s
  12. Width                                    : 1 472 pixels
  13. Height                                   : 1 080 pixels
  14. Display aspect ratio                     : 4:3
  15. Frame rate mode                          : Constant
  16. Frame rate                               : 23.976 (24000/1001/189150) FPS
  17. Color space                              : YUV
  18. Chroma subsampling                       : 4:2:0
  19. Bit depth                                : 8 bits
  20. Scan type                                : Progressive
  21. Bits/(Pixel*Frame)                       : 0.267
  22. Stream size                              : 5.58 GiB (85%)
  23. Writing library                          : x264 core 142 r2431 ac76440
  24. Encoding settings                        : cabac=1 / ref=5 / deblock=1:-3:-3 / analyse=0x3:0x113 / me=umh / subme=8 / psy=1 / psy_rd=1.00:0.15 / mixed_ref=1 / me_range=16 / chroma_me=1 / trellis=1 / 8x8dct=1 / cqm=0 / deadzone=21,11 / fast_pskip=0 / chroma_qp_offset=-3 / threads=18 / lookahead_threads=3 / sliced_threads=0 / nr=0 / decimate=1 / interlaced=0 / bluray_compat=0 / constrained_intra=0 / bframes=3 / b_pyramid=2 / b_adapt=2 / b_bias=0 / direct=3 / weightb=1 / open_gop=0 / weightp=2 / keyint=240 / keyint_min=24 / scenecut=40 / intra_refresh=0 / rc_lookahead=50 / rc=2pass / mbtree=1 / bitrate=10190 / ratetol=1.0 / qcomp=0.60 / qpmin=0 / qpmax=69 / qpstep=4 / cplxblur=20.0 / qblur=0.5 / ip_ratio=1.40 / aq=1:1.00
  25. Language                                 : English
  26. Default                                  : Yes
  27. Forced                                   : No

  28. Audio
  29. ID                                       : 2
  30. Format                                   : DTS
  31. Format/Info                              : Digital Theater Systems
  32. Codec ID                                 : A_DTS
  33. Duration                                 : 1 h 20 min
  34. Bit rate mode                            : Constant
  35. Bit rate                                 : 1 509 kb/s
  36. Channel(s)                               : 2 channels
  37. Channel layout                           : L R
  38. Sampling rate                            : 48.0 kHz
  39. Frame rate                               : 93.750 FPS (512 SPF)
  40. Bit depth                                : 24 bits
  41. Compression mode                         : Lossy
  42. Stream size                              : 866 MiB (13%)
  43. Language                                 : English
  44. Default                                  : Yes
  45. Forced                                   : No

  46. Text
  47. ID                                       : 3
  48. Format                                   : UTF-8
  49. Codec ID                                 : S_TEXT/UTF8
  50. Codec ID/Info                            : UTF-8 Plain Text
  51. Language                                 : English
  52. Default                                  : No
  53. Forced                                   : No

  54. Menu
  55. 00:00:00.000                             : en:00:00:00.000
  56. 00:02:32.694                             : en:00:02:32.694
  57. 00:09:08.965                             : en:00:09:08.965
  58. 00:16:19.770                             : en:00:16:19.770
  59. 00:21:56.899                             : en:00:21:56.899
  60. 00:29:38.402                             : en:00:29:38.402
  61. 00:34:21.268                             : en:00:34:21.268
  62. 00:40:28.468                             : en:00:40:28.468
  63. 00:44:07.603                             : en:00:44:07.603
  64. 00:50:34.949                             : en:00:50:34.949
  65. 00:54:46.533                             : en:00:54:46.533
  66. 00:59:09.463                             : en:00:59:09.463
  67. 01:02:35.752                             : en:01:02:35.752
  68. 01:05:32.345                             : en:01:05:32.345
  69. 01:13:45.713                             : en:01:13:45.713
  70. 01:16:55.069                             : en:01:16:55.069
复制代码








                                       
                                       

                                       
                                       
                                       




回复

使用道具 举报

懒得打字嘛,点击右侧快捷回复 【右侧内容,后台自定义】
您需要登录后才可以回帖 登录 | 立即加入

本版积分规则

Archiver|小黑屋| 蓝光电影网 |网站地图

Copyright © 2021 Comsenz Inc. Powered by 蓝光电影网

蓝光电影网

本站内容由用户自主分享和转载自互联网,转载目的在于传递更多信息,并不代表本网赞同其观点和对其真实性负责。

如有侵权、违反国家法律政策行为,请联系我们,我们会第一时间及时清除和处理!

举报反馈邮箱:[email protected]

快速回复 返回顶部 返回列表