找回密码

蓝光电影网

查看: 13|回复: 0

[科幻] X 放射线 Them.1954.1080p.BluRay.X264-AMIABLE 8.74GB

[复制链接]
蓝光币
382
发表于 2020-10-28 09:29:51 | 显示全部楼层 |阅读模式


◎译  名 X 放射线/Assalto alla Terra/Formicula/放射能X
◎片  名 Them!
◎年  代 1954
◎产  地 美国
◎类  别 科幻 / 可骇
◎语  言 英语
◎上映日期 1954-06-19
◎IMDb评分  7.2/10 from 19523 users
◎IMDb链接  https://www.imdb.com/title/tt0047573/
◎豆瓣评分 7.0/10 from 309 users
◎豆瓣链接 https://movie.douban.com/subject/1302566/
◎片  长 94 分钟
◎导  演 戈登·道格拉斯 Gordon Douglas
◎编  剧 乔治·沃辛·耶茨 George Worthing Yates / 罗素·S·休斯 Russell S. Hughes / 特德·希尔德曼 Ted Sherdeman
◎主  演 詹姆斯·惠特摩 James Whitmore
       埃德蒙·戈温 Edmund Gwenn
       詹姆斯·阿尼斯 James Arness
       琼·韦尔登 Joan Weldon
       迪克·韦塞尔 Dick Wessel
       肖恩·麦克洛里 Sean McClory
       Warren Mace
       马修麦凯 Matthew McCue
       查尔斯梅瑞狄斯 Charles Meredith
       Gayle Kellogg
       肯纳G.肯普 Kenner G. Kemp
       Russell Gaige
       Otis Garth
       奥林·霍兰德 Olin Howland
       玛丽艾伦霍坎森 Mary Alan Hokanson
       费斯·帕克 Fess Parker
       Forbes Murray
       Jack Perrin
       翁斯洛·史蒂文斯 Onslow Stevens
       德博泰勒 Dub Taylor
       K.L. Smith
       Victor Sutherland
       哈利泰勒 Harry Tyler
       唐·谢尔顿 Don Shelton
       哈里·威尔逊 Harry Wilson
       格兰丁·罗德 Grandon Rhodes
       威廉·沙勒特 William Schallert
       多萝西·格林 Dorothy Green
       Chris Drake
       Sandy Descher
       威利斯·布鲁辛 Willis Bouchey
       Robert Berger
       劳伦斯·多布金 Lawrence Dobkin
       Richard Bellis
       Alexander Campbell
       Hubie Kerns
       安·多兰 Ann Doran
       Charles Perry
       艾迪·朱 Eddie Dew
       约翰·贝拉迪诺 John Beradino
       布思·科尔曼 Booth Colman
       Norman Field
       Dean Fredericks
       Cliff Ferre
       Wally Duffy
       理查德·迪肯 Richard Deacon
       Joseph Forte
       詹姆斯·卡德韦尔 James Cardwell
       John Close
       罗登·克拉克 Roydon Clark
       马歇尔·布拉德福德 Marshall Bradford
       詹姆斯·科纳蒂 James Conaty
       沃尔特·科伊 Walter Coy
       伦纳德·尼莫伊 Leonard Nimoy
◎标  签 科幻 | 美国 | 可骇 | 1950s | 美国电影 | 1954 | 大蚂蚁 | 惊悚
◎简  介


  有个惊吓过度的小女孩在沙漠游走,唯一吐出的只要一个字:怪物!任何50年月可骇片迷城市顿时告诉你,她所指的”怪物”就是巨蚁,那是在当地核子试爆后的副产物。这些巨蚁很是有构造,嗜肉且体型庞大,约有8到20呎,它们群聚在洛杉矶的下水道系统,彷若一个庞大的蚂蚁园区,预备好要接收这个天下。要和这些怪物匹敌的人类精英是新墨西哥警署捕快詹姆斯惠特摩,联邦观察局代表詹姆斯亚尼斯,和一对由埃德蒙关恩和乔安妮威尔登所饰的父女档昆虫学家。
◎获奖情况
  第27届奥斯卡金像奖 ?(1955)
  最好殊效(提名)
  1. Video
  2. ID                                       : 1
  3. Format                                   : AVC
  4. Format/Info                              : Advanced Video Codec
  5. Format profile                           : [email protected]
  6. Format settings                          : CABAC / 4 Ref Frames
  7. Format settings, CABAC                   : Yes
  8. Format settings, Reference frames        : 4 frames
  9. Codec ID                                 : V_MPEG4/ISO/AVC
  10. Duration                                 : 1 h 32 min
  11. Bit rate                                 : 12.8 Mb/s
  12. Width                                    : 1 920 pixels
  13. Height                                   : 1 080 pixels
  14. Display aspect ratio                     : 16:9
  15. Frame rate mode                          : Constant
  16. Frame rate                               : 23.976 (24000/1001/189150) FPS
  17. Color space                              : YUV
  18. Chroma subsampling                       : 4:2:0
  19. Bit depth                                : 8 bits
  20. Scan type                                : Progressive
  21. Bits/(Pixel*Frame)                       : 0.257
  22. Stream size                              : 8.07 GiB (92%)
  23. Writing library                          : x264 core 148 r2638 7599210
  24. Encoding settings                        : cabac=1 / ref=4 / deblock=1:-3:-3 / analyse=0x3:0x113 / me=umh / subme=8 / psy=1 / psy_rd=1.10:0.00 / mixed_ref=1 / me_range=16 / chroma_me=1 / trellis=1 / 8x8dct=1 / cqm=0 / deadzone=21,11 / fast_pskip=1 / chroma_qp_offset=-2 / threads=24 / lookahead_threads=4 / sliced_threads=0 / nr=0 / decimate=1 / interlaced=0 / bluray_compat=0 / constrained_intra=0 / bframes=3 / b_pyramid=2 / b_adapt=2 / b_bias=0 / direct=3 / weightb=1 / open_gop=0 / weightp=2 / keyint=240 / keyint_min=24 / scenecut=40 / intra_refresh=0 / rc_lookahead=50 / rc=2pass / mbtree=1 / bitrate=12760 / ratetol=1.0 / qcomp=0.60 / qpmin=0 / qpmax=69 / qpstep=4 / cplxblur=20.0 / qblur=0.5 / ip_ratio=1.40 / aq=3:1.00
  25. Language                                 : English
  26. Default                                  : Yes
  27. Forced                                   : No

  28. Audio
  29. ID                                       : 2
  30. Format                                   : DTS
  31. Format/Info                              : Digital Theater Systems
  32. Codec ID                                 : A_DTS
  33. Duration                                 : 1 h 32 min
  34. Bit rate mode                            : Constant
  35. Bit rate                                 : 768 kb/s
  36. Channel(s)                               : 1 channel
  37. Channel layout                           : C
  38. Sampling rate                            : 48.0 kHz
  39. Frame rate                               : 93.750 FPS (512 SPF)
  40. Bit depth                                : 24 bits
  41. Compression mode                         : Lossy
  42. Stream size                              : 508 MiB (6%)
  43. Language                                 : English
  44. Default                                  : Yes
  45. Forced                                   : No

  46. Text #1
  47. ID                                       : 3
  48. Format                                   : UTF-8
  49. Codec ID                                 : S_TEXT/UTF8
  50. Codec ID/Info                            : UTF-8 Plain Text
  51. Language                                 : English
  52. Default                                  : No
  53. Forced                                   : No

  54. Text #2
  55. ID                                       : 4
  56. Format                                   : UTF-8
  57. Codec ID                                 : S_TEXT/UTF8
  58. Codec ID/Info                            : UTF-8 Plain Text
  59. Title                                    : SDH
  60. Language                                 : English
  61. Default                                  : No
  62. Forced                                   : No

  63. Menu
  64. 00:00:00.000                             : en:00:00:00.000
  65. 00:01:22.082                             : en:00:01:22.082
  66. 00:04:11.918                             : en:00:04:11.918
  67. 00:08:36.015                             : en:00:08:36.015
  68. 00:10:18.868                             : en:00:10:18.868
  69. 00:13:44.365                             : en:00:13:44.365
  70. 00:16:48.174                             : en:00:16:48.174
  71. 00:19:01.349                             : en:00:19:01.349
  72. 00:22:52.371                             : en:00:22:52.371
  73. 00:24:29.134                             : en:00:24:29.134
  74. 00:27:29.273                             : en:00:27:29.273
  75. 00:31:19.586                             : en:00:31:19.586
  76. 00:34:56.428                             : en:00:34:56.428
  77. 00:37:45.597                             : en:00:37:45.597
  78. 00:42:17.702                             : en:00:42:17.702
  79. 00:46:13.813                             : en:00:46:13.813
  80. 00:48:04.507                             : en:00:48:04.507
  81. 00:53:35.838                             : en:00:53:35.838
  82. 00:58:30.632                             : en:00:58:30.632
  83. 01:01:38.403                             : en:01:01:38.403
  84. 01:04:26.988                             : en:01:04:26.988
  85. 01:06:40.788                             : en:01:06:40.788
  86. 01:08:25.601                             : en:01:08:25.601
  87. 01:10:36.441                             : en:01:10:36.441
  88. 01:13:44.253                             : en:01:13:44.253
  89. 01:16:50.147                             : en:01:16:50.147
  90. 01:21:17.998                             : en:01:21:17.998
  91. 01:25:48.894                             : en:01:25:48.894
  92. 01:27:54.978                             : en:01:27:54.978
  93. 01:30:44.939                             : en:01:30:44.939
复制代码









                                       
                                       

                                       
                                       
                                       




回复

使用道具 举报

懒得打字嘛,点击右侧快捷回复 【右侧内容,后台自定义】
您需要登录后才可以回帖 登录 | 立即加入

本版积分规则

Archiver|小黑屋| 蓝光电影网 |网站地图

Copyright © 2021 Comsenz Inc. Powered by 蓝光电影网

蓝光电影网

本站内容由用户自主分享和转载自互联网,转载目的在于传递更多信息,并不代表本网赞同其观点和对其真实性负责。

如有侵权、违反国家法律政策行为,请联系我们,我们会第一时间及时清除和处理!

举报反馈邮箱:[email protected]

快速回复 返回顶部 返回列表