找回密码

蓝光电影网

查看: 20|回复: 0

[科幻] 末日庇护所/末日庇護所 Sanctuary.Population.One.2018.1080p.BluRay.x264-EDPH 5.26GB

[复制链接]
蓝光币
426
发表于 2020-10-27 17:00:04 | 显示全部楼层 |阅读模式


◎译  名 末日庇护所/末日庇護所
◎片  名 Sanctuary Population One
◎年  代 2018
◎产  地 美国
◎类  别 科幻
◎语  言 英语
◎上映日期 2018-12(美国)
◎IMDb评分  3.2/10 from 66 users
◎IMDb链接  https://www.imdb.com/title/tt8470668/
◎豆瓣评分 /10 from 0 users
◎豆瓣链接 https://movie.douban.com/subject/30486780/
◎导  演 特里·马里奥特 Terry Marriott
◎编  剧 特里·马里奥特 Terry Marriott
◎主  演 马修·比特罗夫 Mathew Bittroff
◎标  签 科幻 | 美国电影 | 美国
◎简  介


  21世紀晚期,天下發生劇烈變動,人類面臨保存挑戰。一位年輕的豪杰-伊森,在尋找家人的旅程中對抗受传染的兵士、嗜血的掠奪者,還有不斷糾纏他的過去,在這危機四伏的城市裡,他該若何面對?
  1. Video
  2. ID                                       : 1
  3. Format                                   : AVC
  4. Format/Info                              : Advanced Video Codec
  5. Format profile                           : [email protected]
  6. Format settings                          : CABAC / 5 Ref Frames
  7. Format settings, CABAC                   : Yes
  8. Format settings, Reference frames        : 5 frames
  9. Codec ID                                 : V_MPEG4/ISO/AVC
  10. Duration                                 : 1 h 16 min
  11. Bit rate                                 : 9 207 kb/s
  12. Width                                    : 1 920 pixels
  13. Height                                   : 808 pixels
  14. Display aspect ratio                     : 2.40:1
  15. Frame rate mode                          : Constant
  16. Frame rate                               : 23.976 (24000/1001/189150) FPS
  17. Color space                              : YUV
  18. Chroma subsampling                       : 4:2:0
  19. Bit depth                                : 8 bits
  20. Scan type                                : Progressive
  21. Bits/(Pixel*Frame)                       : 0.248
  22. Stream size                              : 4.91 GiB (93%)
  23. Writing library                          : x264 core 160 r3009 4c9b076
  24. Encoding settings                        : cabac=1 / ref=5 / deblock=1:-3:-3 / analyse=0x3:0x133 / me=umh / subme=11 / psy=1 / psy_rd=1.02:0.00 / mixed_ref=1 / me_range=32 / chroma_me=1 / trellis=2 / 8x8dct=1 / cqm=0 / deadzone=21,11 / fast_pskip=0 / chroma_qp_offset=-2 / threads=12 / lookahead_threads=3 / sliced_threads=0 / nr=0 / decimate=0 / interlaced=0 / bluray_compat=0 / constrained_intra=0 / bframes=16 / b_pyramid=2 / b_adapt=2 / b_bias=0 / direct=3 / weightb=1 / open_gop=0 / weightp=2 / keyint=250 / keyint_min=23 / scenecut=40 / intra_refresh=0 / rc_lookahead=250 / rc=crf / mbtree=0 / crf=15.7 / qcomp=0.65 / qpmin=0 / qpmax=69 / qpstep=4 / vbv_maxrate=62500 / vbv_bufsize=78125 / crf_max=0.0 / nal_hrd=none / filler=0 / ip_ratio=1.30 / pb_ratio=1.20 / aq=3:0.80
  25. Default                                  : No
  26. Forced                                   : No
  27. Color range                              : Limited
  28. Color primaries                          : BT.709
  29. Matrix coefficients                      : BT.709
  30. Audio
  31. ID                                       : 2
  32. Format                                   : FLAC
  33. Format/Info                              : Free Lossless Audio Codec
  34. Codec ID                                 : A_FLAC
  35. Duration                                 : 1 h 16 min
  36. Bit rate mode                            : Variable
  37. Bit rate                                 : 645 kb/s
  38. Channel(s)                               : 2 channels
  39. Channel layout                           : L R
  40. Sampling rate                            : 48.0 kHz
  41. Frame rate                               : 11.719 FPS (4096 SPF)
  42. Bit depth                                : 16 bits
  43. Compression mode                         : Lossless
  44. Stream size                              : 352 MiB (7%)
  45. Writing library                          : libFLAC 1.2.1 (UTC 2007-09-17)
  46. Language                                 : English
  47. Default                                  : Yes
  48. Forced                                   : No
  49. Menu
  50. 00:00:00.000                             : en:Chapter 01
  51. 00:09:16.556                             : en:Chapter 02
  52. 00:19:14.153                             : en:Chapter 03
  53. 00:29:22.761                             : en:Chapter 04
  54. 00:39:24.362                             : en:Chapter 05
  55. 00:49:43.981                             : en:Chapter 06
  56. 00:58:44.521                             : en:Chapter 07
  57. 01:07:22.038                             : en:Chapter 08
  58. 01:13:20.396                             : en:Chapter 09
复制代码





                                       
                                       

                                       
                                       
                                       




回复

使用道具 举报

懒得打字嘛,点击右侧快捷回复 【右侧内容,后台自定义】
您需要登录后才可以回帖 登录 | 立即加入

本版积分规则

Archiver|小黑屋| 蓝光电影网 |网站地图

Copyright © 2021 Comsenz Inc. Powered by 蓝光电影网

蓝光电影网

本站内容由用户自主分享和转载自互联网,转载目的在于传递更多信息,并不代表本网赞同其观点和对其真实性负责。

如有侵权、违反国家法律政策行为,请联系我们,我们会第一时间及时清除和处理!

举报反馈邮箱:[email protected]

快速回复 返回顶部 返回列表