找回密码

蓝光电影网

查看: 21|回复: 0

[动作] 龙牌之谜 Journey.to.China.The.Mystery.of.Iron.Mask.2019.720p.US.BluRay.x264.DTS-MT 8.23GB

[复制链接]
蓝光币
382
发表于 2020-11-15 09:13:11 | 显示全部楼层 |阅读模式


◎译  名 龙牌之谜/Journey to China: The Secret of the Seal of the Dragon/Mystery of Dragon's Seal/Viy 2/Вий 2/Тайна Печати дракона: Путешествие в Китай/中国游记:龙牌之谜/魔鬼的精神2
◎片  名 Tayna pechati drakona
◎年  代 2019
◎产  地 俄罗斯,中国大陆,美国
◎类  别 行动 / 奇异 / 冒险
◎语  言 英语,俄语,汉语普通话
◎上映日期 2019-08-16(中国大陆)
◎IMDb评分  4.6/10 from 2889 users
◎IMDb链接  https://www.imdb.com/title/tt6218010/
◎豆瓣评分 3.6/10 from 14563 users
◎豆瓣链接 https://movie.douban.com/subject/26367602/
◎片  长 120分钟
◎导  演 伊哥·斯坦普陈科 Oleg Stepchenko
◎编  剧 阿列克谢·彼得鲁欣 Alexey A. Petrukhin / 伊哥·斯坦普陈科 Oleg Stepchenko
◎主  演 成龙 Jackie Chan
       阿诺·施瓦辛格 Arnold Schwarzenegger
       杰森·弗莱明 Jason Flemyng
       姚星彤 Xingtong Yao
       马丽 Li Ma
       李彧 Yu Li
       刘智福 Lance Luu
       刘智堂 Charles Luu
       刘智满 Mark Luu
       李萌萌 Mengmeng Li
       安娜·邱丽娜 Anna Churina
       尤里·科洛科利尼科夫 Yuri Kolokolnikov
       巴维尔·沃利亚 Pavel Volya
       克里斯托弗·法里班克 Christopher Fairbank
       马丁·科勒巴 Martin Klebba
       查尔斯·丹斯 Charles Dance
       鲁特格尔·哈尔 Rutger Hauer
       巴雷特·科茨 Barret Coates
       伊戈尔·日日金 Igor Jijikin
       娜露潘格慕·柴辛 Narupornkamol Chaisang
       安德烈·梅尔兹利金 Andrey Merzlikin
       维伦·巴比切夫 Vilen Babichev
       苼楠塔茬·塔纳潘披散 Sananthachat Thanapatpisal
       彼得·拉斐尔森 Peter Rafelson
       尼基塔·塔拉索夫 Nikita Tarasov
       阿列克谢·彼得鲁欣 Alexey A. Petrukhin
       葵咪莎拉·普碟 Kemisara Paladesh
       安东尼·加瓦德 Anthony Gavard
       马蒂厄·雅克 Mathieu Jaquet
       莱安德罗·梅厄·马丁内斯 Leandro Mayor Martinez
       赵婉瑜 Wanyu Zhao
       梁新展 Xinzhan Liang
       李建桥 Lijianqiao
       查雅妮·臣姗卡维 Chayanit Chansangavej
◎标  签 行动 | 奇异 | 中国 | 魔幻 | 冒险 | 2019 | 俄罗斯 | 阿诺德·施瓦辛格
◎简  介


  电影《龙牌之谜》报告了陈腐的东方传闻——龙王在睡觉的时辰睫毛长到地里可以长出茶叶。龙王把法力封印在龙牌里,并把这类气力赋予了替他顾问睫毛的白魔法大师(成龙饰)和他的女儿成兰(姚星彤饰)。邪恶的黑魔法师将白魔法大师和成兰关进了异国牢狱,龙王也堕入了沉睡,以茶叶为生的广大村民从今生活在水深炽热当中……
  1. Video
  2. ID                                       : 1
  3. Format                                   : AVC
  4. Format/Info                              : Advanced Video Codec
  5. Format profile                           : [email protected]
  6. Format settings                          : CABAC / 9 Ref Frames
  7. Format settings, CABAC                   : Yes
  8. Format settings, Reference frames        : 9 frames
  9. Codec ID                                 : V_MPEG4/ISO/AVC
  10. Duration                                 : 2 h 0 min
  11. Bit rate                                 : 8 232 kb/s
  12. Width                                    : 1 280 pixels
  13. Height                                   : 676 pixels
  14. Display aspect ratio                     : 1.893
  15. Frame rate mode                          : Constant
  16. Frame rate                               : 23.976 (24000/1001/189150) FPS
  17. Color space                              : YUV
  18. Chroma subsampling                       : 4:2:0
  19. Bit depth                                : 8 bits
  20. Scan type                                : Progressive
  21. Bits/(Pixel*Frame)                       : 0.397
  22. Stream size                              : 6.94 GiB (84%)
  23. Writing library                          : x264 core 157 r2938 2b00a84 [email protected] Mod
  24. Encoding settings                        : cabac=1 / ref=9 / deblock=1:-3:-3 / analyse=0x3:0x133 / me=umh / subme=10 / psy=1 / psy_rd=1.05:0.00 / mixed_ref=1 / me_range=32 / chroma_me=1 / trellis=2 / 8x8dct=1 / cqm=0 / deadzone=21,11 / fast_pskip=0 / chroma_qp_offset=-2 / threads=12 / lookahead_threads=2 / sliced_threads=0 / nr=0 / decimate=0 / interlaced=0 / bluray_compat=0 / constrained_intra=0 / bframes=8 / b_pyramid=2 / b_adapt=2 / b_bias=0 / direct=3 / weightb=1 / open_gop=0 / weightp=2 / keyint=250 / keyint_min=24 / scenecut=40 / intra_refresh=0 / rc_lookahead=250 / rc=crf / mbtree=0 / crf=16.8 / qcomp=0.60 / qpmin=0 / qpmax=69 / qpstep=4 / vbv_maxrate=62500 / vbv_bufsize=78125 / crf_max=0.0 / nal_hrd=none / filler=0 / ip_ratio=1.30 / pb_ratio=1.20 / aq=3:0.80
  25. Language                                 : English
  26. Default                                  : Yes
  27. Forced                                   : No
  28. Color range                              : Limited
  29. Color primaries                          : BT.709
  30. Matrix coefficients                      : BT.709
  31. Audio
  32. ID                                       : 2
  33. Format                                   : DTS
  34. Format/Info                              : Digital Theater Systems
  35. Codec ID                                 : A_DTS
  36. Duration                                 : 2 h 0 min
  37. Bit rate mode                            : Constant
  38. Bit rate                                 : 1 509 kb/s
  39. Channel(s)                               : 6 channels
  40. Channel layout                           : C L R Ls Rs LFE
  41. Sampling rate                            : 48.0 kHz
  42. Frame rate                               : 93.750 FPS (512 SPF)
  43. Bit depth                                : 24 bits
  44. Compression mode                         : Lossy
  45. Stream size                              : 1.27 GiB (15%)
  46. Language                                 : English
  47. Default                                  : Yes
  48. Forced                                   : No
  49. Text #1
  50. ID                                       : 3
  51. Format                                   : UTF-8
  52. Codec ID                                 : S_TEXT/UTF8
  53. Codec ID/Info                            : UTF-8 Plain Text
  54. Duration                                 : 1 h 52 min
  55. Bit rate                                 : 45 b/s
  56. Count of elements                        : 1255
  57. Stream size                              : 37.6 KiB (0%)
  58. Language                                 : English
  59. Default                                  : Yes
  60. Forced                                   : No
  61. Text #2
  62. ID                                       : 4
  63. Format                                   : PGS
  64. Muxing mode                              : zlib
  65. Codec ID                                 : S_HDMV/PGS
  66. Codec ID/Info                            : Picture based subtitle format used on BDs/HD-DVDs
  67. Duration                                 : 1 h 52 min
  68. Bit rate                                 : 32.3 kb/s
  69. Count of elements                        : 2929
  70. Stream size                              : 25.9 MiB (0%)
  71. Language                                 : English
  72. Default                                  : No
  73. Forced                                   : No
  74. Menu
  75. 00:00:00.000                             : en:Chapter 01
  76. 00:06:33.852                             : en:Chapter 02
  77. 00:15:25.049                             : en:Chapter 03
  78. 00:21:03.304                             : en:Chapter 04
  79. 00:26:21.121                             : en:Chapter 05
  80. 00:34:27.774                             : en:Chapter 06
  81. 00:39:21.109                             : en:Chapter 07
  82. 00:45:38.361                             : en:Chapter 08
  83. 00:53:41.760                             : en:Chapter 09
  84. 01:00:56.444                             : en:Chapter 10
  85. 01:07:25.416                             : en:Chapter 11
  86. 01:14:35.971                             : en:Chapter 12
  87. 01:22:15.305                             : en:Chapter 13
  88. 01:30:40.644                             : en:Chapter 14
  89. 01:38:36.911                             : en:Chapter 15
  90. 01:51:48.619                             : en:Chapter 16
复制代码






                                       
                                       

                                       
                                       
                                       




回复

使用道具 举报

懒得打字嘛,点击右侧快捷回复 【右侧内容,后台自定义】
您需要登录后才可以回帖 登录 | 立即加入

本版积分规则

Archiver|小黑屋| 蓝光电影网 |网站地图

Copyright © 2021 Comsenz Inc. Powered by 蓝光电影网

蓝光电影网

本站内容由用户自主分享和转载自互联网,转载目的在于传递更多信息,并不代表本网赞同其观点和对其真实性负责。

如有侵权、违反国家法律政策行为,请联系我们,我们会第一时间及时清除和处理!

举报反馈邮箱:[email protected]

快速回复 返回顶部 返回列表