找回密码

蓝光电影网

查看: 14|回复: 0

[惊悚] 信使 The.Courier.2020.720p.BluRay.x264.DTS-FGT 5.49GB

[复制链接]
蓝光币
382
发表于 2021-5-30 21:17:39 | 显示全部楼层 |阅读模式


◎译  名 信使/Ironbark/军情情报(港)/情报职员/铁幕行动(台)/铁皮木
◎片  名 The Courier
◎年  代 2020
◎产  地 英国,美国
◎类  别 惊悚
◎语  言 英语
◎上映日期 2020-01-24(圣丹斯电影节) / 2021-03-19(美国) / 2021-05-17(英国)
◎豆瓣评分 7.3/10 from 6841 users
◎豆瓣链接 https://movie.douban.com/subject/30212001/
◎片  长 111分钟
◎导  演 多米尼克·库克 Dominic Cooke
◎编  剧 汤姆·奥康纳 Tom O'Connor
◎主  演 本尼迪克特·康伯巴奇 Benedict Cumberbatch
       瑞秋·布罗斯纳安 Rachel Brosnahan
       梅拉布·尼尼泽 Merab Ninidze
       玛丽亚·米罗诺娃 Mariya Mironova
       安东·莱瑟 Anton Lesser
       安格斯·瑞特 Angus Wright
       大卫·巴克·琼斯 David Bark-Jones
       米尔斯·理查森 Miles Richardson
       杰西·巴克利 Jessie Buckley
       基里尔·彼洛高夫 Kirill Pirogov
       Yuri Klimov
       马里安·洛伦西克 Marian Lorencik
       艾丽丝·奥尔尤因 Alice Orr-Ewing
       乔纳森·哈登 Jonathan Harden
       伊莲娜·艾尔米纳斯 Elina Alminas
       阿勒斯·比利克 Ales Bilík
       安德烈·库尔加诺夫 Andrey Kurganov
       奥德·马利 Ondrej Maly
       贝恩·科拉科 Bern Colla?o
       迪诺·布加迪 Deano Bugatti
       拉塞尔·巴洛格 Russell Balogh
       约瑟夫·巴德拉玛 Joseph Balderrama
       Angus Wright
◎标  签 特务 | 冷战 | 英国 | 卷福 | 战争 | 英国电影 | BenedictCumberbatch | 2020
◎简  介


  按照英国贩子葛雷维尔韦恩(Greville Wynne)的实在故事改编。
  
  《信使》描写葛雷维尔(本尼迪克特·康伯巴奇 饰)在冷战时代与苏联线人欧列格潘科夫斯基(Oleg Penkovsky),黑暗辅佐中情局渗透苏联的核子计划,并供给了成功阻止古巴导弹危机的重要情报。
  1. Video
  2. ID                                       : 1
  3. Format                                   : AVC
  4. Format/Info                              : Advanced Video Codec
  5. Format profile                           : [email protected]
  6. Format settings                          : CABAC / 4 Ref Frames
  7. Format settings, CABAC                   : Yes
  8. Format settings, Reference frames        : 4 frames
  9. Codec ID                                 : V_MPEG4/ISO/AVC
  10. Duration                                 : 1 h 52 min
  11. Bit rate                                 : 5 500 kb/s
  12. Width                                    : 1 280 pixels
  13. Height                                   : 536 pixels
  14. Display aspect ratio                     : 2.40:1
  15. Frame rate mode                          : Constant
  16. Frame rate                               : 23.976 (24000/1001/189150) FPS
  17. Color space                              : YUV
  18. Chroma subsampling                       : 4:2:0
  19. Bit depth                                : 8 bits
  20. Scan type                                : Progressive
  21. Bits/(Pixel*Frame)                       : 0.334
  22. Stream size                              : 4.30 GiB (78%)
  23. Writing library                          : x264 core 148 r2795M aaa9aa8
  24. Encoding settings                        : cabac=1 / ref=4 / deblock=1:-2:-2 / analyse=0x3:0x113 / me=umh / subme=9 / psy=1 / psy_rd=1.00:0.15 / mixed_ref=1 / me_range=16 / chroma_me=1 / trellis=2 / 8x8dct=1 / cqm=0 / deadzone=21,11 / fast_pskip=1 / chroma_qp_offset=-3 / threads=24 / lookahead_threads=3 / sliced_threads=0 / nr=0 / decimate=1 / interlaced=0 / bluray_compat=0 / constrained_intra=0 / bframes=3 / b_pyramid=2 / b_adapt=1 / b_bias=0 / direct=3 / weightb=1 / open_gop=0 / weightp=2 / keyint=250 / keyint_min=25 / scenecut=40 / intra_refresh=0 / rc_lookahead=50 / rc=2pass / mbtree=1 / bitrate=5500 / ratetol=1.0 / qcomp=0.60 / qpmin=0 / qpmax=69 / qpstep=4 / cplxblur=20.0 / qblur=0.5 / vbv_maxrate=31250 / vbv_bufsize=31250 / nal_hrd=none / filler=0 / ip_ratio=1.40 / aq=1:1.00
  25. Language                                 : English
  26. Default                                  : Yes
  27. Forced                                   : No
  28. Audio
  29. ID                                       : 2
  30. Format                                   : DTS
  31. Format/Info                              : Digital Theater Systems
  32. Codec ID                                 : A_DTS
  33. Duration                                 : 1 h 52 min
  34. Bit rate mode                            : Constant
  35. Bit rate                                 : 1 509 kb/s
  36. Channel(s)                               : 6 channels
  37. Channel layout                           : C L R Ls Rs LFE
  38. Sampling rate                            : 48.0 kHz
  39. Frame rate                               : 93.750 FPS (512 SPF)
  40. Bit depth                                : 24 bits
  41. Compression mode                         : Lossy
  42. Stream size                              : 1.18 GiB (22%)
  43. Language                                 : English
  44. Default                                  : Yes
  45. Forced                                   : No
  46. Text
  47. ID                                       : 3
  48. Format                                   : UTF-8
  49. Codec ID                                 : S_TEXT/UTF8
  50. Codec ID/Info                            : UTF-8 Plain Text
  51. Duration                                 : 1 h 43 min
  52. Bit rate                                 : 46 b/s
  53. Count of elements                        : 1005
  54. Stream size                              : 35.5 KiB (0%)
  55. Title                                    : SRT
  56. Language                                 : English
  57. Default                                  : Yes
  58. Forced                                   : No
  59. Menu
  60. 00:00:00.000                             : Chapter 01
  61. 00:05:01.134                             : Chapter 02
  62. 00:14:26.115                             : Chapter 03
  63. 00:22:49.076                             : Chapter 04
  64. 00:28:33.002                             : Chapter 05
  65. 00:34:35.031                             : Chapter 06
  66. 00:40:07.404                             : Chapter 07
  67. 00:45:46.368                             : Chapter 08
  68. 00:51:15.572                             : Chapter 09
  69. 00:57:35.285                             : Chapter 10
  70. 01:05:10.614                             : Chapter 11
  71. 01:12:18.584                             : Chapter 12
  72. 01:19:23.717                             : Chapter 13
  73. 01:27:02.967                             : Chapter 14
  74. 01:32:00.097                             : Chapter 15
  75. 01:41:21.909                             : Chapter 16
复制代码







                                       
                                       

                                       
                                       
                                       




回复

使用道具 举报

懒得打字嘛,点击右侧快捷回复 【右侧内容,后台自定义】
您需要登录后才可以回帖 登录 | 立即加入

本版积分规则

Archiver|小黑屋| 蓝光电影网 |网站地图

Copyright © 2021 Comsenz Inc. Powered by 蓝光电影网

蓝光电影网

本站内容由用户自主分享和转载自互联网,转载目的在于传递更多信息,并不代表本网赞同其观点和对其真实性负责。

如有侵权、违反国家法律政策行为,请联系我们,我们会第一时间及时清除和处理!

举报反馈邮箱:[email protected]

快速回复 返回顶部 返回列表