找回密码

蓝光电影网

查看: 15|回复: 0

[惊悚] 蓝色禁室/微光下的藍色男孩 Sequin.in.a.Blue.Room.2019.720p.BluRay.x264-SCARE 2.55GB

[复制链接]
蓝光币
382
发表于 2021-5-29 16:15:54 | 显示全部楼层 |阅读模式


◎译  名 蓝色禁室/微光下的藍色男孩(台)/蓝色房间的亮片
◎片  名 Sequin in a Blue Room
◎年  代 2019
◎产  地 澳大利亚 Australia
◎类  别 惊悚 / 情色 / 同性
◎语  言 英语
◎上映日期 2019-06-14(澳大利亚(悉尼电影节))
◎豆瓣评分 /10 from 0 users
◎豆瓣链接 https://movie.douban.com/subject/33444637/
◎片  长 80分钟
◎主  演 杰里米·林赛·泰勒 Jeremy Lindsay Taylor
       安东尼·布兰登·黄 Anthony Brandon Wong
       达米安·德·蒙特马斯 Damian de Montemas
◎标  签 情色&色情 | 伦理 | 同性 | 同道 | 电影 | 澳大利亚 | 剧情 | 澳洲
◎简  介


  「很是現代感,但有電影手工藝的氣味」─《好萊塢報導者》
  
  高中男孩西奎不再追尋真愛了。他轉而透過社群媒體與结交軟體約會,寄情於自在匿名的性愛關係,但是生 命卻似幽靈般漂泊,直到在一場性愛聚會上,一眼鍾情迷戀上英俊的奥秘男人,於是西奎開始追蹤男人的身份與 真相,沒想到他走進的那座藍色房間,竟讓自己堕入慾望與危險当中。
  
  本 片 是 澳 洲 導 演 山 謬 范 葛 林 斯 文 的 首 部 作 品,亦 是 他 向 葛 瑞 格 荒 木「 新 酷 兒 電 影 」的 致 敬 之 作,葛 林 斯 文 大 量運用色彩、霓虹與特寫鏡頭,營造出奥秘不祥的危險氛圍,折射當代青少年對於自我與性愛的青澀摸索,男主 角康納利奇吐露陰鬱诱人丰采,不遜於《神祕肌膚》喬瑟夫高登李維初登銀幕氣質。
  1. Video
  2. ID                                       : 1
  3. Format                                   : AVC
  4. Format/Info                              : Advanced Video Codec
  5. Format profile                           : [email protected]
  6. Format settings                          : CABAC / 10 Ref Frames
  7. Format settings, CABAC                   : Yes
  8. Format settings, Reference frames        : 10 frames
  9. Codec ID                                 : V_MPEG4/ISO/AVC
  10. Duration                                 : 1 h 23 min
  11. Bit rate                                 : 3 708 kb/s
  12. Width                                    : 1 280 pixels
  13. Height                                   : 640 pixels
  14. Display aspect ratio                     : 2.000
  15. Frame rate mode                          : Constant
  16. Frame rate                               : 24.000 FPS
  17. Color space                              : YUV
  18. Chroma subsampling                       : 4:2:0
  19. Bit depth                                : 8 bits
  20. Scan type                                : Progressive
  21. Bits/(Pixel*Frame)                       : 0.189
  22. Stream size                              : 2.16 GiB (85%)
  23. Writing library                          : x264 core 163 r3059 b684ebe
  24. Encoding settings                        : cabac=1 / ref=10 / deblock=1:-3:-3 / analyse=0x3:0x133 / me=umh / subme=10 / psy=1 / psy_rd=1.20:0.00 / mixed_ref=1 / me_range=24 / chroma_me=1 / trellis=2 / 8x8dct=1 / cqm=0 / deadzone=21,11 / fast_pskip=0 / chroma_qp_offset=-2 / threads=20 / lookahead_threads=3 / sliced_threads=0 / nr=0 / decimate=0 / interlaced=0 / bluray_compat=0 / constrained_intra=0 / bframes=8 / b_pyramid=2 / b_adapt=2 / b_bias=0 / direct=3 / weightb=1 / open_gop=0 / weightp=2 / keyint=250 / keyint_min=24 / scenecut=40 / intra_refresh=0 / rc_lookahead=60 / rc=crf / mbtree=1 / crf=16.0 / qcomp=0.60 / qpmin=0 / qpmax=69 / qpstep=4 / ip_ratio=1.40 / aq=3:0.90
  25. Default                                  : Yes
  26. Forced                                   : No
  27. Color range                              : Limited
  28. Matrix coefficients                      : BT.709

  29. Audio
  30. ID                                       : 2
  31. Format                                   : AC-3
  32. Format/Info                              : Audio Coding 3
  33. Commercial name                          : Dolby Digital
  34. Codec ID                                 : A_AC3
  35. Duration                                 : 1 h 23 min
  36. Bit rate mode                            : Constant
  37. Bit rate                                 : 640 kb/s
  38. Channel(s)                               : 6 channels
  39. Channel layout                           : L R C LFE Ls Rs
  40. Sampling rate                            : 48.0 kHz
  41. Frame rate                               : 31.250 FPS (1536 SPF)
  42. Compression mode                         : Lossy
  43. Stream size                              : 381 MiB (15%)
  44. Language                                 : English
  45. Service kind                             : Complete Main
  46. Default                                  : Yes
  47. Forced                                   : No

  48. Text #1
  49. ID                                       : 3
  50. Format                                   : PGS
  51. Muxing mode                              : zlib
  52. Codec ID                                 : S_HDMV/PGS
  53. Codec ID/Info                            : Picture based subtitle format used on BDs/HD-DVDs
  54. Duration                                 : 1 h 21 min
  55. Bit rate                                 : 13.2 kb/s
  56. Count of elements                        : 1136
  57. Stream size                              : 7.70 MiB (0%)
  58. Title                                    : SDH
  59. Language                                 : English
  60. Default                                  : No
  61. Forced                                   : No

  62. Text #2
  63. ID                                       : 4
  64. Format                                   : PGS
  65. Muxing mode                              : zlib
  66. Codec ID                                 : S_HDMV/PGS
  67. Codec ID/Info                            : Picture based subtitle format used on BDs/HD-DVDs
  68. Duration                                 : 1 h 20 min
  69. Bit rate                                 : 12.5 kb/s
  70. Count of elements                        : 992
  71. Stream size                              : 7.19 MiB (0%)
  72. Language                                 : Danish
  73. Default                                  : No
  74. Forced                                   : No

  75. Text #3
  76. ID                                       : 5
  77. Format                                   : PGS
  78. Muxing mode                              : zlib
  79. Codec ID                                 : S_HDMV/PGS
  80. Codec ID/Info                            : Picture based subtitle format used on BDs/HD-DVDs
  81. Duration                                 : 1 h 20 min
  82. Bit rate                                 : 12.2 kb/s
  83. Count of elements                        : 992
  84. Stream size                              : 7.01 MiB (0%)
  85. Language                                 : Italian
  86. Default                                  : No
  87. Forced                                   : No

  88. Text #4
  89. ID                                       : 6
  90. Format                                   : PGS
  91. Muxing mode                              : zlib
  92. Codec ID                                 : S_HDMV/PGS
  93. Codec ID/Info                            : Picture based subtitle format used on BDs/HD-DVDs
  94. Duration                                 : 1 h 20 min
  95. Bit rate                                 : 12.6 kb/s
  96. Count of elements                        : 992
  97. Stream size                              : 7.20 MiB (0%)
  98. Language                                 : Spanish
  99. Default                                  : No
  100. Forced                                   : No

  101. Text #5
  102. ID                                       : 7
  103. Format                                   : PGS
  104. Muxing mode                              : zlib
  105. Codec ID                                 : S_HDMV/PGS
  106. Codec ID/Info                            : Picture based subtitle format used on BDs/HD-DVDs
  107. Duration                                 : 1 h 20 min
  108. Bit rate                                 : 12.5 kb/s
  109. Count of elements                        : 992
  110. Stream size                              : 7.17 MiB (0%)
  111. Language                                 : Swedish
  112. Default                                  : No
  113. Forced                                   : No

  114. Menu
  115. 00:00:00.000                             : en:Chapter 01
  116. 00:05:52.542                             : en:Chapter 02
  117. 00:14:55.583                             : en:Chapter 03
  118. 00:25:07.000                             : en:Chapter 04
  119. 00:32:08.917                             : en:Chapter 05
  120. 00:41:06.667                             : en:Chapter 06
  121. 00:45:06.083                             : en:Chapter 07
  122. 00:51:40.167                             : en:Chapter 08
  123. 00:56:35.417                             : en:Chapter 09
  124. 01:03:29.458                             : en:Chapter 10
  125. 01:12:14.917                             : en:Chapter 11
  126. 01:20:55.458                             : en:Chapter 12
复制代码





                                       
                                       

                                       
                                       
                                       




回复

使用道具 举报

懒得打字嘛,点击右侧快捷回复 【右侧内容,后台自定义】
您需要登录后才可以回帖 登录 | 立即加入

本版积分规则

Archiver|小黑屋| 蓝光电影网 |网站地图

Copyright © 2021 Comsenz Inc. Powered by 蓝光电影网

蓝光电影网

本站内容由用户自主分享和转载自互联网,转载目的在于传递更多信息,并不代表本网赞同其观点和对其真实性负责。

如有侵权、违反国家法律政策行为,请联系我们,我们会第一时间及时清除和处理!

举报反馈邮箱:[email protected]

快速回复 返回顶部 返回列表