找回密码

蓝光电影网

查看: 30|回复: 0

[恐怖] 活死人之夜/恶夜僵尸 Night.of.the.Living.Dead.1990.1080p.BluRay.X264-AMIABLE 6.56GB

[复制链接]
蓝光币
511
发表于 2020-11-24 09:39:03 | 显示全部楼层 |阅读模式


◎译  名 活死人之夜/恶夜僵尸/恶夜活跳尸
◎片  名 Night of the Living Dead
◎年  代 1990
◎产  地 美国
◎类  别 可骇
◎语  言 英语
◎上映日期 1990-10-19
◎IMDb评分  6.9/10 from 38589 users
◎IMDb链接  https://www.imdb.com/title/tt0100258/
◎豆瓣评分 6.7/10 from 1974 users
◎豆瓣链接 https://movie.douban.com/subject/1297295/
◎片  长 92 分钟
◎导  演 汤姆·萨维尼 Tom Savini
◎编  剧 乔治·A·罗梅罗 George A. Romero
◎主  演 托尼·托德 Tony Todd
       帕特里夏·塔尔曼 Patricia Tallman
       汤姆·托尔斯 Tom Towles
       Earl Ellis
       Declan Baldwin
       格雷格·方克 Greg Funk
       John D. Bert
       Pat Reese
       Russell Streiner
       比尔·莫斯利 Bill Moseley
       Chris Gore
       Don Brockett
       Tim Carrier
       Bill 'Chilly Billy' Cardille
       William Cameron
       希瑟·马祖尔 Heather Mazur
       Bill McCue
       凯蒂·芬内朗 Katie Finneran
◎标  签 可骇 | 僵尸 | 美国 | 丧尸 | 惊悚 | Cult | 美国电影 | 1990
◎简  介


  在墓地中,芭芭拉(Patricia Tallman 饰)和哥哥强尼(比尔·莫斯利 Bill Moseley 饰)遭到了丧尸的攻击,没过量久,受伤的强尼遭到传染加入了丧尸的队伍。求生的愿望引领着芭芭拉来到了一处民宅,在那边,她碰见了一样在躲避丧尸的本(托尼·托德 Tony Todd 饰)。躲在屋子里的并非只要本和芭芭拉两人,在地下室里,汤姆(Bill Butler 饰)与女友朱迪(凯蒂·芬内朗 Katie Finneran 饰),哈里(Tom Towles 饰)和海伦(McKee Anderson 饰)佳耦逐一现身。
  
  除了数目上的差别,体能和抗击打才能方面的庞大差异让屋内众人的存活几率降到了最低。屋外是狞恶嗜血的损失,屋内是手持刀枪的人类,一场血腥的战争行将拉开序幕。
  1. Video
  2. ID                                       : 1
  3. Format                                   : AVC
  4. Format/Info                              : Advanced Video Codec
  5. Format profile                           : [email protected]
  6. Format settings, CABAC                   : Yes
  7. Format settings, ReFrames                : 4 frames
  8. Codec ID                                 : V_MPEG4/ISO/AVC
  9. Duration                                 : 1 h 28 min
  10. Bit rate                                 : 9 128 kb/s
  11. Width                                    : 1 920 pixels
  12. Height                                   : 1 040 pixels
  13. Display aspect ratio                     : 1.85:1
  14. Frame rate mode                          : Constant
  15. Frame rate                               : 23.976 (24000/1001/189150) FPS
  16. Color space                              : YUV
  17. Chroma subsampling                       : 4:2:0
  18. Bit depth                                : 8 bits
  19. Scan type                                : Progressive
  20. Bits/(Pixel*Frame)                       : 0.191
  21. Stream size                              : 5.50 GiB (84%)
  22. Writing library                          : x264 core 129 r2230 1cffe9f
  23. Encoding settings                        : cabac=1 / ref=4 / deblock=1:0:0 / analyse=0x3:0x113 / me=umh / subme=8 / psy=1 / psy_rd=1.00:0.00 / mixed_ref=1 / me_range=16 / chroma_me=1 / trellis=1 / 8x8dct=1 / cqm=0 / deadzone=21,11 / fast_pskip=1 / chroma_qp_offset=-2 / threads=12 / lookahead_threads=2 / sliced_threads=0 / nr=0 / decimate=1 / interlaced=0 / bluray_compat=0 / constrained_intra=0 / bframes=3 / b_pyramid=2 / b_adapt=2 / b_bias=0 / direct=3 / weightb=1 / open_gop=0 / weightp=2 / keyint=240 / keyint_min=24 / scenecut=40 / intra_refresh=0 / rc_lookahead=50 / rc=2pass / mbtree=1 / bitrate=9128 / ratetol=1.0 / qcomp=0.60 / qpmin=0 / qpmax=69 / qpstep=4 / cplxblur=20.0 / qblur=0.5 / ip_ratio=1.40 / aq=1:1.00
  24. Language                                 : English
  25. Default                                  : Yes
  26. Forced                                   : No
  27. Audio
  28. ID                                       : 2
  29. Format                                   : DTS
  30. Format/Info                              : Digital Theater Systems
  31. Mode                                     : 16
  32. Format settings, Endianness              : Big
  33. Codec ID                                 : A_DTS
  34. Duration                                 : 1 h 28 min
  35. Bit rate mode                            : Constant
  36. Bit rate                                 : 1 509 kb/s
  37. Channel(s)                               : 6 channels
  38. Channel positions                        : Front: L C R, Side: L R, LFE
  39. Sampling rate                            : 48.0 kHz
  40. Frame rate                               : 93.750 FPS (512 spf)
  41. Bit depth                                : 24 bits
  42. Compression mode                         : Lossy
  43. Stream size                              : 953 MiB (14%)
  44. Language                                 : English
  45. Default                                  : Yes
  46. Forced                                   : No
  47. Menu
  48. 00:00:00.000                             : en:00:00:00.000
  49. 00:08:25.630                             : en:00:08:25.630
  50. 00:20:03.452                             : en:00:20:03.452
  51. 00:27:50.043                             : en:00:27:50.043
  52. 00:33:28.715                             : en:00:33:28.715
  53. 00:37:06.891                             : en:00:37:06.891
  54. 00:44:05.226                             : en:00:44:05.226
  55. 00:53:19.988                             : en:00:53:19.988
  56. 00:59:48.627                             : en:00:59:48.627
  57. 01:11:31.787                             : en:01:11:31.787
  58. 01:17:56.755                             : en:01:17:56.755
  59. 01:25:07.978                             : en:01:25:07.978
复制代码








                                       
                                       

                                       
                                       
                                       




回复

使用道具 举报

懒得打字嘛,点击右侧快捷回复 【右侧内容,后台自定义】
您需要登录后才可以回帖 登录 | 立即加入

本版积分规则

Archiver|小黑屋| 蓝光电影网 |网站地图

Copyright © 2021 Comsenz Inc. Powered by 蓝光电影网

蓝光电影网

本站内容由用户自主分享和转载自互联网,转载目的在于传递更多信息,并不代表本网赞同其观点和对其真实性负责。

如有侵权、违反国家法律政策行为,请联系我们,我们会第一时间及时清除和处理!

举报反馈邮箱:[email protected]

快速回复 返回顶部 返回列表