找回密码

蓝光电影网

查看: 14|回复: 0

[其他] 不可击败/不败 Undefeated.2011.1080p.BluRay.x264-PSYCHD 8.74GB

[复制链接]
蓝光币
515
发表于 2020-10-4 12:10:38 | 显示全部楼层 |阅读模式


◎译  名 不成击败/不败
◎片  名 Undefeated
◎年  代 2011
◎产  地 美国
◎类  别 记载片
◎语  言 英语
◎上映日期 2011-03-13
◎IMDb评分  7.7/10 from 6709 users
◎IMDb链接  https://www.imdb.com/title/tt1860355/
◎豆瓣评分 8.3/10 from 660 users
◎豆瓣链接 https://movie.douban.com/subject/6771730/
◎片  长 113分钟
◎标  签 记载片 | 美国 | 体育 | 第84届奥斯卡 | 2011 | 奥斯卡 | 奥斯卡最好记载长片提名 | 美国电影
◎简  介


  In 2004, football coach Bill Courtney took on the daunting job of coaching at Manassas High School in inner-city Memphis, where players are more likely to wind up in jail than in college. The Manassas Tigers were perennial whipping boys of the league, bereft of victories, funds, and morale. Courtney recruited a group of freshmen to turn things around, and in their first season they got creamed. But with each passing year they won more games and more respect. At the start of the season in 2009, Courtney set a goal: to win the first play-off game in the school’s 110-year history.
◎获奖情况
  第84届奥斯卡金像奖 ?(2012)
  最好记载长片 T·J·马丁?/?丹尼尔·林赛?/?里奇·米德尔马斯
  
  第17届美国批评家挑选电影奖 ?(2012)
  最好记载片(提名)
  
  第20届东南影评人协会奖 ?(2011)
  南方精神奖(提名)
  1. Video
  2. ID                                       : 1
  3. Format                                   : AVC
  4. Format/Info                              : Advanced Video Codec
  5. Format profile                           : [email protected]
  6. Format settings                          : CABAC / 4 Ref Frames
  7. Format settings, CABAC                   : Yes
  8. Format settings, Reference frames        : 4 frames
  9. Codec ID                                 : V_MPEG4/ISO/AVC
  10. Duration                                 : 1 h 53 min
  11. Bit rate                                 : 9 537 kb/s
  12. Width                                    : 1 920 pixels
  13. Height                                   : 1 080 pixels
  14. Display aspect ratio                     : 16:9
  15. Frame rate mode                          : Constant
  16. Frame rate                               : 23.976 (24000/1001/189150) FPS
  17. Color space                              : YUV
  18. Chroma subsampling                       : 4:2:0
  19. Bit depth                                : 8 bits
  20. Scan type                                : Progressive
  21. Bits/(Pixel*Frame)                       : 0.192
  22. Stream size                              : 7.38 GiB (84%)
  23. Writing library                          : x264 core 129 r2230 1cffe9f
  24. Encoding settings                        : cabac=1 / ref=4 / deblock=1:0:0 / analyse=0x3:0x113 / me=umh / subme=8 / psy=1 / psy_rd=1.00:0.00 / mixed_ref=1 / me_range=16 / chroma_me=1 / trellis=1 / 8x8dct=1 / cqm=0 / deadzone=21,11 / fast_pskip=1 / chroma_qp_offset=-2 / threads=12 / lookahead_threads=2 / sliced_threads=0 / nr=0 / decimate=1 / interlaced=0 / bluray_compat=0 / constrained_intra=0 / bframes=3 / b_pyramid=2 / b_adapt=2 / b_bias=0 / direct=3 / weightb=1 / open_gop=0 / weightp=2 / keyint=240 / keyint_min=24 / scenecut=40 / intra_refresh=0 / rc_lookahead=50 / rc=2pass / mbtree=1 / bitrate=9537 / ratetol=1.0 / qcomp=0.60 / qpmin=0 / qpmax=69 / qpstep=4 / cplxblur=20.0 / qblur=0.5 / ip_ratio=1.40 / aq=1:1.00
  25. Language                                 : English
  26. Default                                  : Yes
  27. Forced                                   : No

  28. Audio
  29. ID                                       : 2
  30. Format                                   : DTS
  31. Format/Info                              : Digital Theater Systems
  32. Codec ID                                 : A_DTS
  33. Duration                                 : 1 h 53 min
  34. Bit rate mode                            : Constant
  35. Bit rate                                 : 1 509 kb/s
  36. Channel(s)                               : 6 channels
  37. Channel layout                           : C L R Ls Rs LFE
  38. Sampling rate                            : 48.0 kHz
  39. Frame rate                               : 93.750 FPS (512 SPF)
  40. Bit depth                                : 24 bits
  41. Compression mode                         : Lossy
  42. Stream size                              : 1.19 GiB (14%)
  43. Language                                 : English
  44. Default                                  : Yes
  45. Forced                                   : No

  46. Text
  47. ID                                       : 3
  48. Format                                   : UTF-8
  49. Codec ID                                 : S_TEXT/UTF8
  50. Codec ID/Info                            : UTF-8 Plain Text
  51. Language                                 : English
  52. Default                                  : No
  53. Forced                                   : No

  54. Menu
  55. 00:00:00.000                             : en:00:00:00.000
  56. 00:04:29.102                             : en:00:04:29.102
  57. 00:10:00.892                             : en:00:10:00.892
  58. 00:17:27.296                             : en:00:17:27.296
  59. 00:24:25.255                             : en:00:24:25.255
  60. 00:30:11.810                             : en:00:30:11.810
  61. 00:37:33.710                             : en:00:37:33.710
  62. 00:44:19.866                             : en:00:44:19.866
  63. 00:50:23.020                             : en:00:50:23.020
  64. 00:56:15.789                             : en:00:56:15.789
  65. 01:01:17.299                             : en:01:01:17.299
  66. 01:08:13.131                             : en:01:08:13.131
  67. 01:15:01.914                             : en:01:15:01.914
  68. 01:21:51.698                             : en:01:21:51.698
  69. 01:26:41.655                             : en:01:26:41.655
  70. 01:33:36.486                             : en:01:33:36.486
  71. 01:40:56.634                             : en:01:40:56.634
  72. 01:49:03.579                             : en:01:49:03.579
复制代码









                                       
                                       

                                       
                                       
                                       




回复

使用道具 举报

懒得打字嘛,点击右侧快捷回复 【右侧内容,后台自定义】
您需要登录后才可以回帖 登录 | 立即加入

本版积分规则

Archiver|小黑屋| 蓝光电影网 |网站地图

Copyright © 2021 Comsenz Inc. Powered by 蓝光电影网

蓝光电影网

本站内容由用户自主分享和转载自互联网,转载目的在于传递更多信息,并不代表本网赞同其观点和对其真实性负责。

如有侵权、违反国家法律政策行为,请联系我们,我们会第一时间及时清除和处理!

举报反馈邮箱:[email protected]

快速回复 返回顶部 返回列表