找回密码

蓝光电影网

查看: 13|回复: 0

[动作] 创:战纪 Tron.Legacy.2010.iNTERNAL.1080p.RERIP.BluRay.x264-MOOVEE 14.60GB

[复制链接]
蓝光币
515
发表于 2019-8-28 06:54:32 | 显示全部楼层 |阅读模式


◎译  名 创:战纪 / TR2N / Tron 2 / 创战纪 / 创:光速战记(台) / 电子天下争霸战2
◎片  名 TRON: Legacy
◎年  代 2010
◎产  地 美国
◎类  别 行动 / 科幻 / 冒险
◎语  言 英语
◎上映日期 2010-12-17(美国) / 2011-01-10(中国大陆)
◎IMDb评分  6.8/10 from 298297 users
◎IMDb链接  http://www.imdb.com/title/tt1104001
◎豆瓣评分 6.6/10 from 84165 users
◎豆瓣链接 https://movie.douban.com/subject/2997134/
◎片  长 125分钟
◎导  演 约瑟夫·科辛斯基 Joseph Kosinski
◎编  剧 亚当·霍罗威茨 Adam Horowitz / 布赖恩·克卢格曼 Brian Klugman / 爱德华·基齐斯 Edward Kitsis / 李·施特恩塔尔 Lee Sternthal / 史蒂文·利斯伯吉尔 Steven Lisberger / 邦尼·麦克伯德 Bonnie MacBird
◎主  演 加内特·赫德兰 Garrett Hedlund
       奥利维亚·王尔德 Olivia Wilde
       杰夫·布里吉斯 Jeff Bridges
       布鲁斯·巴克林纳 Bruce Boxleitner
       杰姆斯·弗莱明 James Frain
       碧儿·加勒特 Beau Garrett
       麦克·辛 Michael Sheen
       阿尼斯·舍尔法 Anis Cheurfa
       赛琳达·斯万 Serinda Swan
       丫丫·达科斯塔 Yaya DaCosta
       伊丽莎白·马西斯 Elizabeth Mathis
       希里安·墨菲 Cillian Murphy

◎标  签 科幻 | 美国 | 3D | 电子天下争霸战 | 行动 | 美国电影 | 迪斯尼 | 2010
◎简  介  
  20世纪80年月,电子软体天赋凯文·弗林(杰夫·布里吉斯 Jeff Bridges 饰)建立了英康公司,将人类带入一个全新的时代。可是在光辉的时代开创未几后,凯文奥秘失落。在此以后,凯文年幼的儿子萨姆(加内特·赫德兰 Garrett Hedlund 饰)继续了父亲的位置,现实工作则由其他工作职员主持。萨姆天资聪慧,布满冒险精神,经常给英康的高层们惹来麻烦。这一天,他得知一间荒废已久的工作室内竟传来父亲的讯息。萨姆前往探查,成果竟进入一个全数字化的虚拟天下。这个天下的掌控者克鲁(杰夫·布里吉斯 Jeff Bridges 饰)与父亲有着一样的容貌,却野心勃勃,邪恶非常。萨姆被迫卷入一场布满诡计的电子争霸战中……
  本片荣获2010年奥斯汀影评人协会最好原创配乐奖。
◎获奖情况  
  第83届奥斯卡金像奖(2011)
  最好音效剪辑(提名) 艾迪生·蒂格 / Gwendolyn Yates Whittle
  第20届MTV电影奖(2011)
  MTV电影奖 冲破表演奖(提名) 奥利维亚·王尔德
  第13届美国青少年挑选奖(2011)
  Choice Movie Breakout: Female(提名) 奥利维亚·王尔德
  1. Video
  2. ID                                       : 1
  3. Format                                   : AVC
  4. Format/Info                              : Advanced Video Codec
  5. Format profile                           : [email protected]
  6. Format settings                          : CABAC / 4 Ref Frames
  7. Format settings, CABAC                   : Yes
  8. Format settings, Reference frames        : 4 frames
  9. Codec ID                                 : V_MPEG4/ISO/AVC
  10. Duration                                 : 2 h 5 min
  11. Bit rate                                 : 13.3 Mb/s
  12. Width                                    : 1 920 pixels
  13. Height                                   : 1 080 pixels
  14. Display aspect ratio                     : 16:9
  15. Frame rate mode                          : Constant
  16. Frame rate                               : 23.976 (24000/1001) FPS
  17. Color space                              : YUV
  18. Chroma subsampling                       : 4:2:0
  19. Bit depth                                : 8 bits
  20. Scan type                                : Progressive
  21. Bits/(Pixel*Frame)                       : 0.268
  22. Stream size                              : 11.6 GiB (80%)
  23. Writing library                          : x264 core 148 r2744kMod b97ae06
  24. Encoding settings                        : cabac=1 / ref=4 / deblock=1:0:0 / analyse=0x3:0x133 / me=umh / subme=9 / psy=1 / fade_compensate=0.00 / psy_rd=1.00:0.00 / mixed_ref=1 / me_range=16 / chroma_me=1 / trellis=2 / 8x8dct=1 / cqm=0 / deadzone=21,11 / fast_pskip=1 / chroma_qp_offset=-2 / threads=18 / lookahead_threads=1 / sliced_threads=0 / nr=0 / decimate=1 / interlaced=0 / bluray_compat=0 / constrained_intra=0 / bframes=3 / b_pyramid=2 / b_adapt=2 / b_bias=0 / direct=3 / weightb=1 / open_gop=0 / weightp=2 / keyint=250 / keyint_min=23 / scenecut=40 / intra_refresh=0 / rc_lookahead=60 / rc=crf / mbtree=1 / crf=19.0000 / qcomp=0.60 / qpmin=0 / qpmax=69 / qpstep=4 / ip_ratio=1.40 / aq=1:1.00
  25. Language                                 : English
  26. Default                                  : Yes
  27. Forced                                   : No

  28. Audio
  29. ID                                       : 2
  30. Format                                   : DTS XLL
  31. Format/Info                              : Digital Theater Systems
  32. Commercial name                          : DTS-HD Master Audio
  33. Codec ID                                 : A_DTS
  34. Duration                                 : 2 h 5 min
  35. Bit rate mode                            : Variable
  36. Bit rate                                 : 3 328 kb/s
  37. Channel(s)                               : 8 channels
  38. Channel layout                           : C L R LFE Lb Rb Lss Rss
  39. Sampling rate                            : 48.0 kHz
  40. Frame rate                               : 93.750 FPS (512 SPF)
  41. Bit depth                                : 16 bits
  42. Compression mode                         : Lossless
  43. Stream size                              : 2.91 GiB (20%)
  44. Title                                    : English
  45. Language                                 : English
  46. Default                                  : Yes
  47. Forced                                   : No

  48. Text #1
  49. ID                                       : 3
  50. Format                                   : PGS
  51. Muxing mode                              : zlib
  52. Codec ID                                 : S_HDMV/PGS
  53. Codec ID/Info                            : Picture based subtitle format used on BDs/HD-DVDs
  54. Duration                                 : 2 h 4 min
  55. Bit rate                                 : 5 241 b/s
  56. Count of elements                        : 2052
  57. Stream size                              : 4.67 MiB (0%)
  58. Title                                    : Arabic
  59. Language                                 : Arabic
  60. Default                                  : No
  61. Forced                                   : No

  62. Text #2
  63. ID                                       : 4
  64. Format                                   : PGS
  65. Muxing mode                              : zlib
  66. Codec ID                                 : S_HDMV/PGS
  67. Codec ID/Info                            : Picture based subtitle format used on BDs/HD-DVDs
  68. Duration                                 : 2 h 4 min
  69. Bit rate                                 : 6 061 b/s
  70. Count of elements                        : 1924
  71. Stream size                              : 5.40 MiB (0%)
  72. Title                                    : Danish
  73. Language                                 : Danish
  74. Default                                  : No
  75. Forced                                   : No

  76. Text #3
  77. ID                                       : 5
  78. Format                                   : PGS
  79. Muxing mode                              : zlib
  80. Codec ID                                 : S_HDMV/PGS
  81. Codec ID/Info                            : Picture based subtitle format used on BDs/HD-DVDs
  82. Duration                                 : 2 h 4 min
  83. Bit rate                                 : 6 553 b/s
  84. Count of elements                        : 2124
  85. Stream size                              : 5.84 MiB (0%)
  86. Title                                    : English
  87. Language                                 : English
  88. Default                                  : No
  89. Forced                                   : No

  90. Text #4
  91. ID                                       : 6
  92. Format                                   : PGS
  93. Muxing mode                              : zlib
  94. Codec ID                                 : S_HDMV/PGS
  95. Codec ID/Info                            : Picture based subtitle format used on BDs/HD-DVDs
  96. Duration                                 : 2 h 4 min
  97. Bit rate                                 : 5 254 b/s
  98. Count of elements                        : 2014
  99. Stream size                              : 4.68 MiB (0%)
  100. Title                                    : Finnish
  101. Language                                 : Finnish
  102. Default                                  : No
  103. Forced                                   : No

  104. Text #5
  105. ID                                       : 7
  106. Format                                   : PGS
  107. Muxing mode                              : zlib
  108. Codec ID                                 : S_HDMV/PGS
  109. Codec ID/Info                            : Picture based subtitle format used on BDs/HD-DVDs
  110. Duration                                 : 2 h 4 min
  111. Bit rate                                 : 6 039 b/s
  112. Count of elements                        : 1922
  113. Stream size                              : 5.38 MiB (0%)
  114. Title                                    : Icelandic
  115. Language                                 : Icelandic
  116. Default                                  : No
  117. Forced                                   : No

  118. Text #6
  119. ID                                       : 8
  120. Format                                   : PGS
  121. Muxing mode                              : zlib
  122. Codec ID                                 : S_HDMV/PGS
  123. Codec ID/Info                            : Picture based subtitle format used on BDs/HD-DVDs
  124. Duration                                 : 2 h 4 min
  125. Bit rate                                 : 5 899 b/s
  126. Count of elements                        : 1922
  127. Stream size                              : 5.26 MiB (0%)
  128. Title                                    : Norwegian
  129. Language                                 : Norwegian
  130. Default                                  : No
  131. Forced                                   : No

  132. Text #7
  133. ID                                       : 9
  134. Format                                   : PGS
  135. Muxing mode                              : zlib
  136. Codec ID                                 : S_HDMV/PGS
  137. Codec ID/Info                            : Picture based subtitle format used on BDs/HD-DVDs
  138. Duration                                 : 2 h 4 min
  139. Bit rate                                 : 6 325 b/s
  140. Count of elements                        : 1994
  141. Stream size                              : 5.64 MiB (0%)
  142. Title                                    : Portuguese
  143. Language                                 : Portuguese
  144. Default                                  : No
  145. Forced                                   : No

  146. Text #8
  147. ID                                       : 10
  148. Format                                   : PGS
  149. Muxing mode                              : zlib
  150. Codec ID                                 : S_HDMV/PGS
  151. Codec ID/Info                            : Picture based subtitle format used on BDs/HD-DVDs
  152. Duration                                 : 2 h 4 min
  153. Bit rate                                 : 5 800 b/s
  154. Count of elements                        : 1864
  155. Stream size                              : 5.17 MiB (0%)
  156. Title                                    : Romany
  157. Language                                 : rom
  158. Default                                  : No
  159. Forced                                   : No

  160. Text #9
  161. ID                                       : 11
  162. Format                                   : PGS
  163. Muxing mode                              : zlib
  164. Codec ID                                 : S_HDMV/PGS
  165. Codec ID/Info                            : Picture based subtitle format used on BDs/HD-DVDs
  166. Duration                                 : 2 h 4 min
  167. Bit rate                                 : 6 042 b/s
  168. Count of elements                        : 1948
  169. Stream size                              : 5.39 MiB (0%)
  170. Title                                    : Spanish
  171. Language                                 : Spanish
  172. Default                                  : No
  173. Forced                                   : No

  174. Text #10
  175. ID                                       : 12
  176. Format                                   : PGS
  177. Muxing mode                              : zlib
  178. Codec ID                                 : S_HDMV/PGS
  179. Codec ID/Info                            : Picture based subtitle format used on BDs/HD-DVDs
  180. Duration                                 : 2 h 4 min
  181. Bit rate                                 : 5 457 b/s
  182. Count of elements                        : 1700
  183. Stream size                              : 4.86 MiB (0%)
  184. Title                                    : Swedish
  185. Language                                 : Swedish
  186. Default                                  : No
  187. Forced                                   : No

  188. Menu
  189. 00:00:00.000                             : en:00:00:00.000
  190. 00:04:07.164                             : en:00:04:07.164
  191. 00:14:44.133                             : en:00:14:44.133
  192. 00:23:15.603                             : en:00:23:15.603
  193. 00:26:52.694                             : en:00:26:52.694
  194. 00:36:12.212                             : en:00:36:12.212
  195. 00:38:35.980                             : en:00:38:35.980
  196. 00:46:52.727                             : en:00:46:52.727
  197. 00:53:03.764                             : en:00:53:03.764
  198. 01:04:54.182                             : en:01:04:54.182
  199. 01:13:47.423                             : en:01:13:47.423
  200. 01:19:00.945                             : en:01:19:00.945
  201. 01:22:40.455                             : en:01:22:40.455
  202. 01:25:50.896                             : en:01:25:50.896
  203. 01:28:11.828                             : en:01:28:11.828
  204. 01:31:42.414                             : en:01:31:42.414
  205. 01:43:13.062                             : en:01:43:13.062
  206. 01:48:18.033                             : en:01:48:18.033
  207. 01:54:48.381                             : en:01:54:48.381
  208. 01:58:03.660                             : en:01:58:03.660
复制代码




                                       
                                       

                                       
                                       
                                       




回复

使用道具 举报

懒得打字嘛,点击右侧快捷回复 【右侧内容,后台自定义】
您需要登录后才可以回帖 登录 | 立即加入

本版积分规则

Archiver|小黑屋| 蓝光电影网 |网站地图

Copyright © 2021 Comsenz Inc. Powered by 蓝光电影网

蓝光电影网

本站内容由用户自主分享和转载自互联网,转载目的在于传递更多信息,并不代表本网赞同其观点和对其真实性负责。

如有侵权、违反国家法律政策行为,请联系我们,我们会第一时间及时清除和处理!

举报反馈邮箱:[email protected]

快速回复 返回顶部 返回列表