找回密码

蓝光电影网

查看: 17|回复: 0

[剧情] 一分为二 1.1.2018.1080p.BluRay.REMUX.AVC.DTS-HD.MA.5.1-FGT 18.05GB

[复制链接]
蓝光币
515
发表于 2019-7-1 08:29:26 | 显示全部楼层 |阅读模式


◎译  名 一分为二
◎片  名 1 / 1
◎年  代 2018
◎产  地 美国
◎类  别 剧情
◎语  言 英语
◎上映日期 2018-07-17(美国)
◎IMDb评分  7.0/10 from 1238 users
◎IMDb链接  http://www.imdb.com/title/tt3445702
◎豆瓣评分 0/10 from 0 users
◎豆瓣链接 https://movie.douban.com/subject/30277369/
◎片  长 85分钟
◎导  演 Jeremy Phillips
◎编  剧 Jeremy Phillips
◎主  演 琳赛·肖 Lindsey Shaw
      贾德·尼尔森 Judd Nelson
      丹德里·泰勒 Dendrie Taylor

◎标  签 美国 | 电影 | 恋爱 | 剧情 | 2018
◎简  介  
  Breathless, daring, and undone in a million pieces. Describing both the film's style and main character, 1/1 submerges the audience into the mind of Lissa, a twenty-year-old girl trapped in rural Pennsylvania, who grapples with sex, drugs, love and loss. When a possible pregnancy forces Lissa to take a hard look at her life, both her and the structure of the film mature, illuminating a brighter path ahead.
  1. Video
  2. ID                                       : 1
  3. Format                                   : AVC
  4. Format/Info                              : Advanced Video Codec
  5. Format profile                           : [email protected]
  6. Format settings                          : CABAC / 4 Ref Frames
  7. Format settings, CABAC                   : Yes
  8. Format settings, ReFrames                : 4 frames
  9. Codec ID                                 : V_MPEG4/ISO/AVC
  10. Duration                                 : 1 h 24 min
  11. Bit rate mode                            : Variable
  12. Bit rate                                 : 28.7 Mb/s
  13. Maximum bit rate                         : 38.0 Mb/s
  14. Width                                    : 1 920 pixels
  15. Height                                   : 1 080 pixels
  16. Display aspect ratio                     : 16:9
  17. Frame rate mode                          : Constant
  18. Frame rate                               : 23.976 (24000/1001) FPS
  19. Color space                              : YUV
  20. Chroma subsampling                       : 4:2:0
  21. Bit depth                                : 8 bits
  22. Scan type                                : Progressive
  23. Bits/(Pixel*Frame)                       : 0.577
  24. Stream size                              : 16.9 GiB (94%)
  25. Title                                    : 1.1.2018.1080p.BluRay.REMUX.AVC.DTS-HD.MA.5.1-FGT
  26. Language                                 : English
  27. Default                                  : No
  28. Forced                                   : No
  29. Audio
  30. ID                                       : 2
  31. Format                                   : DTS XLL
  32. Format/Info                              : Digital Theater Systems
  33. Commercial name                          : DTS-HD Master Audio
  34. Codec ID                                 : A_DTS
  35. Duration                                 : 1 h 24 min
  36. Bit rate mode                            : Variable
  37. Bit rate                                 : 1 859 kb/s
  38. Channel(s)                               : 6 channels
  39. Channel layout                           : C L R Ls Rs LFE
  40. Sampling rate                            : 48.0 kHz
  41. Frame rate                               : 93.750 FPS (512 SPF)
  42. Bit depth                                : 24 bits
  43. Compression mode                         : Lossless
  44. Stream size                              : 1.10 GiB (6%)
  45. Title                                    : 1.1.2018.1080p.BluRay.REMUX.AVC.DTS-HD.MA.5.1-FGT
  46. Language                                 : English
  47. Default                                  : Yes
  48. Forced                                   : No
  49. Text
  50. ID                                       : 3
  51. Format                                   : PGS
  52. Muxing mode                              : zlib
  53. Codec ID                                 : S_HDMV/PGS
  54. Codec ID/Info                            : Picture based subtitle format used on BDs/HD-DVDs
  55. Duration                                 : 1 h 20 min
  56. Bit rate                                 : 48.6 kb/s
  57. Count of elements                        : 1606
  58. Stream size                              : 28.0 MiB (0%)
  59. Title                                    : English-PGS
  60. Language                                 : English
  61. Default                                  : Yes
  62. Forced                                   : No
  63. Menu
  64. 00:00:00.000                             : en:Chapter 01
  65. 00:10:07.231                             : en:Chapter 02
  66. 00:18:49.670                             : en:Chapter 03
  67. 00:29:03.158                             : en:Chapter 04
  68. 00:41:25.941                             : en:Chapter 05
  69. 00:51:50.607                             : en:Chapter 06
  70. 01:02:49.766                             : en:Chapter 07
  71. 01:10:08.579                             : en:Chapter 08
  72. 01:24:27.228                             : en:Chapter 09
复制代码






                                       
                                       

                                       
                                       
                                       




回复

使用道具 举报

懒得打字嘛,点击右侧快捷回复 【右侧内容,后台自定义】
您需要登录后才可以回帖 登录 | 立即加入

本版积分规则

Archiver|小黑屋| 蓝光电影网 |网站地图

Copyright © 2021 Comsenz Inc. Powered by 蓝光电影网

蓝光电影网

本站内容由用户自主分享和转载自互联网,转载目的在于传递更多信息,并不代表本网赞同其观点和对其真实性负责。

如有侵权、违反国家法律政策行为,请联系我们,我们会第一时间及时清除和处理!

举报反馈邮箱:[email protected]

快速回复 返回顶部 返回列表