找回密码

蓝光电影网

查看: 27|回复: 0

[喜剧] 不文大丈夫 Skin.Deep.1989.1080p.BluRay.x264.DTS-FGT 9.21GB

[复制链接]
蓝光币
515
发表于 2020-11-24 09:27:12 | 显示全部楼层 |阅读模式


◎译  名 不文大丈夫
◎片  名 Skin Deep
◎年  代 1989
◎产  地 美国
◎类  别 笑剧
◎语  言 英语
◎上映日期 1989-03-03
◎IMDb评分  6.2/10 from 3992 users
◎IMDb链接  https://www.imdb.com/title/tt0098343/
◎豆瓣评分 /10 from 0 users
◎豆瓣链接 https://movie.douban.com/subject/3067312/
◎片  长 97 分钟
◎导  演 布莱克·爱德华兹 Blake Edwards
◎编  剧 布莱克·爱德华兹 Blake Edwards
◎主  演 约翰·瑞特 John Ritter
       文森特·加迪尼亚 Vincent Gardenia
       乔尔·布鲁克斯 Joel Brooks
       艾莉森·瑞德 Alyson Reed
       朱莉安娜·菲利普斯 Julianne Phillips
       唐·戈登 Don Gordon
       Raye Hollitt
       彼得·多纳特 Peter Donat
       尼娜·弗彻 Nina Foch
       Scott Kraft
       Judy Toll
       迈克尔·基德 Michael Kidd
       John McCann
       布赖恩·詹尼斯 Bryan Genesse
       丹尼斯·克罗斯比 Denise Crosby
       Diana Barton
       雪莉·李·拉尔夫 Sheryl Lee Ralph
       切尔西.菲尔德 Chelsea Field
       Robert Burleigh
       Robert Dowdell
       布兰达·斯特朗 Brenda Strong
◎标  签 美国 | 情境笑剧 | 布莱克·爱德华兹 | 笑剧 | 电影 | 映画 | Nina_Foch | M美国
◎简  介


  暂无相关剧情先容
  1. Video
  2. ID                                       : 1
  3. Format                                   : AVC
  4. Format/Info                              : Advanced Video Codec
  5. Format profile                           : [email protected]
  6. Format settings                          : CABAC / 4 Ref Frames
  7. Format settings, CABAC                   : Yes
  8. Format settings, Reference frames        : 4 frames
  9. Codec ID                                 : V_MPEG4/ISO/AVC
  10. Duration                                 : 1 h 41 min
  11. Bit rate                                 : 11.5 Mb/s
  12. Width                                    : 1 920 pixels
  13. Height                                   : 808 pixels
  14. Display aspect ratio                     : 2.40:1
  15. Frame rate mode                          : Constant
  16. Frame rate                               : 23.976 (24000/1001/189150) FPS
  17. Color space                              : YUV
  18. Chroma subsampling                       : 4:2:0
  19. Bit depth                                : 8 bits
  20. Scan type                                : Progressive
  21. Bits/(Pixel*Frame)                       : 0.309
  22. Stream size                              : 8.14 GiB (88%)
  23. Title                                    : Skin.Deep.1989.1080p.BluRay.x264.DTS-FGT
  24. Writing library                          : x264 core 148 r2795M aaa9aa8
  25. Encoding settings                        : cabac=1 / ref=4 / deblock=1:-2:-2 / analyse=0x3:0x113 / me=umh / subme=9 / psy=1 / psy_rd=1.00:0.15 / mixed_ref=1 / me_range=16 / chroma_me=1 / trellis=2 / 8x8dct=1 / cqm=0 / deadzone=21,11 / fast_pskip=1 / chroma_qp_offset=-3 / threads=24 / lookahead_threads=3 / sliced_threads=0 / nr=0 / decimate=1 / interlaced=0 / bluray_compat=0 / constrained_intra=0 / bframes=3 / b_pyramid=2 / b_adapt=1 / b_bias=0 / direct=3 / weightb=1 / open_gop=0 / weightp=2 / keyint=250 / keyint_min=25 / scenecut=40 / intra_refresh=0 / rc_lookahead=50 / rc=2pass / mbtree=1 / bitrate=11500 / ratetol=1.0 / qcomp=0.60 / qpmin=0 / qpmax=69 / qpstep=4 / cplxblur=20.0 / qblur=0.5 / vbv_maxrate=31250 / vbv_bufsize=31250 / nal_hrd=none / filler=0 / ip_ratio=1.40 / aq=1:1.00
  26. Language                                 : English
  27. Default                                  : Yes
  28. Forced                                   : No
  29. Audio
  30. ID                                       : 2
  31. Format                                   : DTS
  32. Format/Info                              : Digital Theater Systems
  33. Codec ID                                 : A_DTS
  34. Duration                                 : 1 h 41 min
  35. Bit rate mode                            : Constant
  36. Bit rate                                 : 1 509 kb/s
  37. Channel(s)                               : 2 channels
  38. Channel layout                           : L R
  39. Sampling rate                            : 48.0 kHz
  40. Frame rate                               : 93.750 FPS (512 SPF)
  41. Bit depth                                : 16 bits
  42. Compression mode                         : Lossy
  43. Stream size                              : 1.07 GiB (12%)
  44. Title                                    : Skin.Deep.1989.1080p.BluRay.x264.DTS-FGT
  45. Language                                 : English
  46. Default                                  : Yes
  47. Forced                                   : No
  48. Text
  49. ID                                       : 3
  50. Format                                   : UTF-8
  51. Codec ID                                 : S_TEXT/UTF8
  52. Codec ID/Info                            : UTF-8 Plain Text
  53. Duration                                 : 1 h 40 min
  54. Bit rate                                 : 74 b/s
  55. Count of elements                        : 1531
  56. Stream size                              : 54.7 KiB (0%)
  57. Language                                 : English
  58. Default                                  : Yes
  59. Forced                                   : No
  60. Menu
  61. 00:00:00.000                             : en:Chapter 01
  62. 00:04:58.006                             : en:Chapter 02
  63. 00:14:35.291                             : en:Chapter 03
  64. 00:23:55.183                             : en:Chapter 04
  65. 00:28:37.590                             : en:Chapter 05
  66. 00:36:07.081                             : en:Chapter 06
  67. 00:44:16.570                             : en:Chapter 07
  68. 00:50:38.827                             : en:Chapter 08
  69. 01:01:51.290                             : en:Chapter 09
  70. 01:15:01.788                             : en:Chapter 10
  71. 01:20:11.515                             : en:Chapter 11
  72. 01:28:21.504                             : en:Chapter 12
  73. 01:40:57.551                             : en:Chapter 13
复制代码






                                       
                                       

                                       
                                       
                                       




回复

使用道具 举报

懒得打字嘛,点击右侧快捷回复 【右侧内容,后台自定义】
您需要登录后才可以回帖 登录 | 立即加入

本版积分规则

Archiver|小黑屋| 蓝光电影网 |网站地图

Copyright © 2021 Comsenz Inc. Powered by 蓝光电影网

蓝光电影网

本站内容由用户自主分享和转载自互联网,转载目的在于传递更多信息,并不代表本网赞同其观点和对其真实性负责。

如有侵权、违反国家法律政策行为,请联系我们,我们会第一时间及时清除和处理!

举报反馈邮箱:[email protected]

快速回复 返回顶部 返回列表