找回密码

蓝光电影网

查看: 19|回复: 0

[动作] 007:大战皇家赌场/007大战皇家赌场 Casino.Royale.2006.1080p.BluRay.x264.DTS-CtrlHD 17.04GB

[复制链接]
蓝光币
515
发表于 2019-8-28 02:25:18 | 显示全部楼层 |阅读模式


◎译  名 007:大战皇家赌场 / 007大战皇家赌场 / 007系列21:大战皇家赌场 / 007首部曲:皇家夜总会(台) / James Bond 007 - Casino Royale / 新铁金刚智破皇家赌场(港) / 邦德21
◎片  名 Casino Royale
◎年  代 2006
◎产  地 美国 / 英国 / 德国 / 捷克 Czech Republic / 巴哈马 Bahamas
◎类  别 行动 / 惊悚 / 犯罪
◎语  言 英语
◎上映日期 2006-11-16(英国) / 2006-11-17(美国) / 2007-01-30(中国大陆)
◎IMDb评分  8.0/10 from 543625 users
◎IMDb链接  http://www.imdb.com/title/tt0381061
◎豆瓣评分 7.5/10 from 115486 users
◎豆瓣链接 https://movie.douban.com/subject/1418190/
◎片  长 144分钟
◎导  演 马丁·坎贝尔 Martin Campbell
◎编  剧 尼尔·珀维斯 Neal Purvis / 罗伯特·韦德 Robert Wade / 保罗·哈吉斯 Paul Haggis / 伊恩·弗莱明 Ian Fleming
◎主  演 丹尼尔·克雷格 Daniel Craig
       伊娃·格林 Eva Green
       麦德斯·米科尔森 Mads Mikkelsen
       朱迪·丹奇 Judi Dench
       杰弗里·怀特 Jeffrey Wright
       吉安卡罗·吉安尼尼 Giancarlo Giannini

◎标  签 007 | 行动 | 美国 | 特务 | 英国 | 2006 | 奸细 | 犯罪
◎简  介  
  英国军情六处奸细詹姆斯?邦德(丹尼尔?克雷格饰)这一次的使命是在赌场上赢取俄罗斯特务手中的巨额财富,让其背后的可骇构造势力没法告竣诡计而且击垮可骇构造。此次,邦德有了一个标致的得力女助手琳德(伊娃?格林饰)。邦德经过了赌场上的各种练习,终极来到了皇家赌场。随着赌注越来越大,这场赌局也越来越显现出背后交织的诡计。邦德甚至几乎死于横死。
  在配合的合作中,邦德和琳德不知不觉具有了信赖和默契,这类豪情,将会何去何从呢?
  1. Video
  2. ID                                       : 1
  3. Format                                   : AVC
  4. Format/Info                              : Advanced Video Codec
  5. Format profile                           : [email protected]
  6. Format settings                          : CABAC / 5 Ref Frames
  7. Format settings, CABAC                   : Yes
  8. Format settings, Reference frames        : 5 frames
  9. Codec ID                                 : V_MPEG4/ISO/AVC
  10. Duration                                 : 2 h 24 min
  11. Bit rate                                 : 16.1 Mb/s
  12. Width                                    : 1 920 pixels
  13. Height                                   : 800 pixels
  14. Display aspect ratio                     : 2.40:1
  15. Frame rate mode                          : Constant
  16. Frame rate                               : 23.976 (24000/1001) FPS
  17. Color space                              : YUV
  18. Chroma subsampling                       : 4:2:0
  19. Bit depth                                : 8 bits
  20. Scan type                                : Progressive
  21. Bits/(Pixel*Frame)                       : 0.437
  22. Stream size                              : 16.3 GiB (95%)
  23. Writing library                          : x264 core 128 r2216kMod 198a7ea
  24. Encoding settings                        : cabac=1 / ref=5 / deblock=1:-3:-3 / analyse=0x3:0x113 / me=umh / subme=9 / psy=1 / fade_compensate=0.00 / psy_rd=1.15:0.00 / mixed_ref=1 / me_range=16 / chroma_me=1 / trellis=2 / 8x8dct=1 / cqm=0 / deadzone=21,11 / fast_pskip=0 / chroma_qp_offset=-2 / threads=6 / lookahead_threads=1 / sliced_threads=0 / nr=0 / decimate=0 / interlaced=0 / bluray_compat=0 / constrained_intra=0 / bframes=8 / b_pyramid=2 / b_adapt=2 / b_bias=0 / direct=3 / weightb=1 / open_gop=0 / weightp=2 / keyint=250 / keyint_min=23 / scenecut=40 / intra_refresh=0 / rc=crf / mbtree=0 / crf=19.0000 / qcomp=0.72 / qpmin=0 / qpmax=69 / qpstep=4 / ip_ratio=1.40 / pb_ratio=1.30 / aq=1:0.70
  25. Language                                 : English
  26. Default                                  : No
  27. Forced                                   : No
  28. Audio
  29. ID                                       : 2
  30. Format                                   : DTS
  31. Format/Info                              : Digital Theater Systems
  32. Codec ID                                 : A_DTS
  33. Duration                                 : 2 h 24 min
  34. Bit rate mode                            : Constant
  35. Bit rate                                 : 768 kb/s
  36. Channel(s)                               : 6 channels
  37. Channel layout                           : C L R Ls Rs LFE
  38. Sampling rate                            : 48.0 kHz
  39. Frame rate                               : 93.750 FPS (512 SPF)
  40. Bit depth                                : 24 bits
  41. Compression mode                         : Lossy
  42. Stream size                              : 794 MiB (5%)
  43. Language                                 : English
  44. Default                                  : Yes
  45. Forced                                   : No
  46. Text #1
  47. ID                                       : 3
  48. Format                                   : UTF-8
  49. Codec ID                                 : S_TEXT/UTF8
  50. Codec ID/Info                            : UTF-8 Plain Text
  51. Duration                                 : 2 h 23 min
  52. Bit rate                                 : 28 b/s
  53. Count of elements                        : 1065
  54. Stream size                              : 29.6 KiB (0%)
  55. Language                                 : Croatian
  56. Default                                  : No
  57. Forced                                   : No
  58. Text #2
  59. ID                                       : 4
  60. Format                                   : UTF-8
  61. Codec ID                                 : S_TEXT/UTF8
  62. Codec ID/Info                            : UTF-8 Plain Text
  63. Duration                                 : 2 h 23 min
  64. Bit rate                                 : 29 b/s
  65. Count of elements                        : 1029
  66. Stream size                              : 31.5 KiB (0%)
  67. Language                                 : Czech
  68. Default                                  : No
  69. Forced                                   : No
  70. Text #3
  71. ID                                       : 5
  72. Format                                   : UTF-8
  73. Codec ID                                 : S_TEXT/UTF8
  74. Codec ID/Info                            : UTF-8 Plain Text
  75. Duration                                 : 2 h 23 min
  76. Bit rate                                 : 28 b/s
  77. Count of elements                        : 847
  78. Stream size                              : 30.3 KiB (0%)
  79. Language                                 : Danish
  80. Default                                  : No
  81. Forced                                   : No
  82. Text #4
  83. ID                                       : 6
  84. Format                                   : UTF-8
  85. Codec ID                                 : S_TEXT/UTF8
  86. Codec ID/Info                            : UTF-8 Plain Text
  87. Duration                                 : 2 h 23 min
  88. Bit rate                                 : 31 b/s
  89. Count of elements                        : 1035
  90. Stream size                              : 33.3 KiB (0%)
  91. Language                                 : English
  92. Default                                  : No
  93. Forced                                   : No
  94. Text #5
  95. ID                                       : 7
  96. Format                                   : UTF-8
  97. Codec ID                                 : S_TEXT/UTF8
  98. Codec ID/Info                            : UTF-8 Plain Text
  99. Duration                                 : 2 h 23 min
  100. Bit rate                                 : 29 b/s
  101. Count of elements                        : 980
  102. Stream size                              : 31.5 KiB (0%)
  103. Language                                 : Spanish
  104. Default                                  : No
  105. Forced                                   : No
  106. Text #6
  107. ID                                       : 8
  108. Format                                   : UTF-8
  109. Codec ID                                 : S_TEXT/UTF8
  110. Codec ID/Info                            : UTF-8 Plain Text
  111. Duration                                 : 2 h 23 min
  112. Bit rate                                 : 29 b/s
  113. Count of elements                        : 1042
  114. Stream size                              : 31.2 KiB (0%)
  115. Language                                 : Spanish
  116. Default                                  : No
  117. Forced                                   : No
  118. Text #7
  119. ID                                       : 9
  120. Format                                   : UTF-8
  121. Codec ID                                 : S_TEXT/UTF8
  122. Codec ID/Info                            : UTF-8 Plain Text
  123. Duration                                 : 2 h 23 min
  124. Bit rate                                 : 25 b/s
  125. Count of elements                        : 940
  126. Stream size                              : 26.5 KiB (0%)
  127. Language                                 : Finnish
  128. Default                                  : No
  129. Forced                                   : No
  130. Text #8
  131. ID                                       : 10
  132. Format                                   : UTF-8
  133. Codec ID                                 : S_TEXT/UTF8
  134. Codec ID/Info                            : UTF-8 Plain Text
  135. Duration                                 : 2 h 23 min
  136. Bit rate                                 : 25 b/s
  137. Count of elements                        : 916
  138. Stream size                              : 26.9 KiB (0%)
  139. Language                                 : French
  140. Default                                  : No
  141. Forced                                   : No
  142. Text #9
  143. ID                                       : 11
  144. Format                                   : UTF-8
  145. Codec ID                                 : S_TEXT/UTF8
  146. Codec ID/Info                            : UTF-8 Plain Text
  147. Duration                                 : 2 h 23 min
  148. Bit rate                                 : 27 b/s
  149. Count of elements                        : 899
  150. Stream size                              : 28.9 KiB (0%)
  151. Language                                 : German
  152. Default                                  : No
  153. Forced                                   : No
  154. Text #10
  155. ID                                       : 12
  156. Format                                   : UTF-8
  157. Codec ID                                 : S_TEXT/UTF8
  158. Codec ID/Info                            : UTF-8 Plain Text
  159. Duration                                 : 2 h 23 min
  160. Bit rate                                 : 24 b/s
  161. Count of elements                        : 970
  162. Stream size                              : 25.9 KiB (0%)
  163. Language                                 : Hungarian
  164. Default                                  : No
  165. Forced                                   : No
  166. Text #11
  167. ID                                       : 13
  168. Format                                   : UTF-8
  169. Codec ID                                 : S_TEXT/UTF8
  170. Codec ID/Info                            : UTF-8 Plain Text
  171. Duration                                 : 2 h 23 min
  172. Bit rate                                 : 33 b/s
  173. Count of elements                        : 1034
  174. Stream size                              : 34.8 KiB (0%)
  175. Language                                 : Icelandic
  176. Default                                  : No
  177. Forced                                   : No
  178. Text #12
  179. ID                                       : 14
  180. Format                                   : UTF-8
  181. Codec ID                                 : S_TEXT/UTF8
  182. Codec ID/Info                            : UTF-8 Plain Text
  183. Duration                                 : 2 h 23 min
  184. Bit rate                                 : 33 b/s
  185. Count of elements                        : 1031
  186. Stream size                              : 35.7 KiB (0%)
  187. Language                                 : Indonesian
  188. Default                                  : No
  189. Forced                                   : No
  190. Text #13
  191. ID                                       : 15
  192. Format                                   : UTF-8
  193. Codec ID                                 : S_TEXT/UTF8
  194. Codec ID/Info                            : UTF-8 Plain Text
  195. Duration                                 : 2 h 23 min
  196. Bit rate                                 : 33 b/s
  197. Count of elements                        : 1059
  198. Stream size                              : 35.1 KiB (0%)
  199. Language                                 : Italian
  200. Default                                  : No
  201. Forced                                   : No
  202. Text #14
  203. ID                                       : 16
  204. Format                                   : UTF-8
  205. Codec ID                                 : S_TEXT/UTF8
  206. Codec ID/Info                            : UTF-8 Plain Text
  207. Duration                                 : 2 h 23 min
  208. Bit rate                                 : 29 b/s
  209. Count of elements                        : 966
  210. Stream size                              : 30.8 KiB (0%)
  211. Language                                 : Dutch
  212. Default                                  : No
  213. Forced                                   : No
  214. Text #15
  215. ID                                       : 17
  216. Format                                   : UTF-8
  217. Codec ID                                 : S_TEXT/UTF8
  218. Codec ID/Info                            : UTF-8 Plain Text
  219. Duration                                 : 2 h 23 min
  220. Bit rate                                 : 23 b/s
  221. Count of elements                        : 924
  222. Stream size                              : 24.9 KiB (0%)
  223. Language                                 : Norwegian
  224. Default                                  : No
  225. Forced                                   : No
  226. Text #16
  227. ID                                       : 18
  228. Format                                   : UTF-8
  229. Codec ID                                 : S_TEXT/UTF8
  230. Codec ID/Info                            : UTF-8 Plain Text
  231. Duration                                 : 2 h 23 min
  232. Bit rate                                 : 24 b/s
  233. Count of elements                        : 974
  234. Stream size                              : 25.8 KiB (0%)
  235. Language                                 : Polish
  236. Default                                  : No
  237. Forced                                   : No
  238. Text #17
  239. ID                                       : 19
  240. Format                                   : UTF-8
  241. Codec ID                                 : S_TEXT/UTF8
  242. Codec ID/Info                            : UTF-8 Plain Text
  243. Duration                                 : 2 h 23 min
  244. Bit rate                                 : 30 b/s
  245. Count of elements                        : 995
  246. Stream size                              : 31.8 KiB (0%)
  247. Language                                 : Portuguese
  248. Default                                  : No
  249. Forced                                   : No
  250. Text #18
  251. ID                                       : 20
  252. Format                                   : UTF-8
  253. Codec ID                                 : S_TEXT/UTF8
  254. Codec ID/Info                            : UTF-8 Plain Text
  255. Duration                                 : 2 h 23 min
  256. Bit rate                                 : 26 b/s
  257. Count of elements                        : 976
  258. Stream size                              : 28.0 KiB (0%)
  259. Language                                 : Portuguese
  260. Default                                  : No
  261. Forced                                   : No
  262. Text #19
  263. ID                                       : 21
  264. Format                                   : UTF-8
  265. Codec ID                                 : S_TEXT/UTF8
  266. Codec ID/Info                            : UTF-8 Plain Text
  267. Duration                                 : 2 h 23 min
  268. Bit rate                                 : 34 b/s
  269. Count of elements                        : 1053
  270. Stream size                              : 36.9 KiB (0%)
  271. Language                                 : Romanian
  272. Default                                  : No
  273. Forced                                   : No
  274. Text #20
  275. ID                                       : 22
  276. Format                                   : UTF-8
  277. Codec ID                                 : S_TEXT/UTF8
  278. Codec ID/Info                            : UTF-8 Plain Text
  279. Duration                                 : 2 h 23 min
  280. Bit rate                                 : 25 b/s
  281. Count of elements                        : 1071
  282. Stream size                              : 26.4 KiB (0%)
  283. Language                                 : Slovenian
  284. Default                                  : No
  285. Forced                                   : No
  286. Text #21
  287. ID                                       : 23
  288. Format                                   : UTF-8
  289. Codec ID                                 : S_TEXT/UTF8
  290. Codec ID/Info                            : UTF-8 Plain Text
  291. Duration                                 : 2 h 23 min
  292. Bit rate                                 : 28 b/s
  293. Count of elements                        : 1057
  294. Stream size                              : 30.3 KiB (0%)
  295. Language                                 : Serbian
  296. Default                                  : No
  297. Forced                                   : No
  298. Text #22
  299. ID                                       : 24
  300. Format                                   : UTF-8
  301. Codec ID                                 : S_TEXT/UTF8
  302. Codec ID/Info                            : UTF-8 Plain Text
  303. Duration                                 : 2 h 23 min
  304. Bit rate                                 : 25 b/s
  305. Count of elements                        : 698
  306. Stream size                              : 26.9 KiB (0%)
  307. Language                                 : Swedish
  308. Default                                  : No
  309. Forced                                   : No
  310. Text #23
  311. ID                                       : 25
  312. Format                                   : UTF-8
  313. Codec ID                                 : S_TEXT/UTF8
  314. Codec ID/Info                            : UTF-8 Plain Text
  315. Duration                                 : 2 h 23 min
  316. Bit rate                                 : 32 b/s
  317. Count of elements                        : 1000
  318. Stream size                              : 34.2 KiB (0%)
  319. Language                                 : Turkish
  320. Default                                  : No
  321. Forced                                   : No
  322. Menu
  323. 00:00:00.000                             : en:Chapter 1
  324. 00:09:37.285                             : en:Chapter 2
  325. 00:19:30.503                             : en:Chapter 3
  326. 00:25:35.325                             : en:Chapter 4
  327. 00:35:18.241                             : en:Chapter 5
  328. 00:39:58.855                             : en:Chapter 6
  329. 00:45:21.761                             : en:Chapter 7
  330. 00:57:50.384                             : en:Chapter 8
  331. 01:07:21.621                             : en:Chapter 9
  332. 01:17:11.377                             : en:Chapter 10
  333. 01:30:05.400                             : en:Chapter 11
  334. 01:38:40.498                             : en:Chapter 12
  335. 01:43:28.953                             : en:Chapter 13
  336. 01:54:02.377                             : en:Chapter 14
  337. 02:05:44.704                             : en:Chapter 15
  338. 02:13:19.033                             : en:Chapter 16
复制代码






                                       
                                       

                                       
                                       
                                       




回复

使用道具 举报

懒得打字嘛,点击右侧快捷回复 【右侧内容,后台自定义】
您需要登录后才可以回帖 登录 | 立即加入

本版积分规则

Archiver|小黑屋| 蓝光电影网 |网站地图

Copyright © 2021 Comsenz Inc. Powered by 蓝光电影网

蓝光电影网

本站内容由用户自主分享和转载自互联网,转载目的在于传递更多信息,并不代表本网赞同其观点和对其真实性负责。

如有侵权、违反国家法律政策行为,请联系我们,我们会第一时间及时清除和处理!

举报反馈邮箱:[email protected]

快速回复 返回顶部 返回列表