找回密码

蓝光电影网

查看: 9|回复: 0

[动作] 神奇四侠2015 Fantastic.Four.2015.1080p.BluRay.x264-GECKOS 7.81GB

[复制链接]
蓝光币
511
发表于 2019-8-28 02:13:59 | 显示全部楼层 |阅读模式


◎译  名 奇异四侠2015 / Fant4stic / 惊奇4超人(台) / 新奇异四侠 / 奇异4侠(港)
◎片  名 Fantastic Four
◎年  代 2015
◎产  地 美国 / 英国 / 德国
◎类  别 行动 / 科幻 / 冒险
◎语  言 英语
◎上映日期 2015-08-07(美国)
◎IMDb评分  4.3/10 from 141567 users
◎IMDb链接  http://www.imdb.com/title/tt1502712
◎豆瓣评分 4.4/10 from 32377 users
◎豆瓣链接 https://movie.douban.com/subject/4014396/
◎片  长 100分钟
◎导  演 乔什·特兰克 Josh Trank
◎编  剧 西蒙·金伯格 Simon Kinberg / 杰克·科比 Jack Kirby / 斯坦·李 Stan Lee / 乔什·特兰克 Josh Trank / 杰里米·斯莱特 Jeremy Slate
◎主  演 迈尔斯·特勒 Miles Teller
       凯特·玛拉 Kate Mara
       迈克尔·B·乔丹 Michael B. Jordan
       杰米·贝尔 Jamie Bell
       蒂姆·布雷克·尼尔森 Tim Blake Nelson
       托比·凯贝尔 Toby Kebbell
       雷格·E.凯蒂 Reg E. Cathey
       玛丽·蕾切尔·达德利 Mary Rachel Dudley
       唐·耶索 Don Yesso
       兰斯·E·尼克尔斯 Lance E. Nichols
       马科·圣约翰 Marco St. John
       安东尼·雷诺兹 Anthony Reynolds
       切特·汉克斯 Chet Hanks
       韦恩·佩雷 Wayne Pére

◎标  签 科幻 | 美国 | 漫威 | 奇异四侠 | 漫画改编 | 行动 | 2015 | Marvel
◎简  介  
  天赋少年理查德(迈尔斯·特勒 Miles Teller 饰)凭仗物体传送装配的发现获得正研讨量子门的富兰克林?斯通的欣赏,他将理查德招至麾下,经过和维克多(托比·凯贝尔 Toby Kebbell 饰)、约翰尼(迈克尔·B·乔丹 Michael B. Jordan 饰)、苏珊(凯特·玛拉 Kate Mara 饰)等才华横溢的青年们的通力合作,量子门的研讨终究获得冲破性停顿。未几以后,不甘功效被政府掠夺的年轻人们叫上理查德的朋友本(杰米·贝尔 Jamie Bell 饰),偷偷潜入阿谁未知的天下探险,谁知却被奥秘的能量所传染。在此以后,他们具有了身材伸缩、控制火焰、岩石化以及隐形等才能。
  为了能过答复畴前的样子,年轻人们再次走向量子门,而劈面的天下还有一个当初被丢下的同伴期待着他们……
◎获奖情况  
  第36届金酸莓奖(2016)
  最差影片
  最差导演 乔什·特兰克
  最差剧本(提名)
  最差银幕同伴(提名) 迈尔斯·特勒 / 迈克尔·B·乔丹 / 杰米·贝尔 / 凯特·玛拉
  最差前传、重拍、恶搞及续集电影
  第2届豆瓣电影年度榜单(2015)
  评分最低的外语电影(提名)
  第6届豆瓣电影鑫像奖(2016)
  豆渣单元 最渣影片(外语)(提名)
  豆渣单元 最渣导演(外语) 乔什·特兰克
  豆渣单元 最渣男演员(外语)(提名) 迈尔斯·特勒
  豆渣单元 最渣女演员(外语)(提名) 凯特·玛拉
  1. Video
  2. ID                                       : 1
  3. Format                                   : AVC
  4. Format/Info                              : Advanced Video Codec
  5. Format profile                           : [email protected]
  6. Format settings                          : CABAC / 5 Ref Frames
  7. Format settings, CABAC                   : Yes
  8. Format settings, Reference frames        : 5 frames
  9. Codec ID                                 : V_MPEG4/ISO/AVC
  10. Duration                                 : 1 h 39 min
  11. Bit rate                                 : 9 447 kb/s
  12. Width                                    : 1 920 pixels
  13. Height                                   : 808 pixels
  14. Display aspect ratio                     : 2.40:1
  15. Frame rate mode                          : Constant
  16. Frame rate                               : 23.976 FPS
  17. Color space                              : YUV
  18. Chroma subsampling                       : 4:2:0
  19. Bit depth                                : 8 bits
  20. Scan type                                : Progressive
  21. Bits/(Pixel*Frame)                       : 0.254
  22. Stream size                              : 6.59 GiB (86%)
  23. Writing library                          : x264 core 148 r2638 7599210
  24. Encoding settings                        : cabac=1 / ref=5 / deblock=1:0:0 / analyse=0x3:0x133 / me=umh / subme=7 / psy=1 / psy_rd=1.00:0.00 / mixed_ref=1 / me_range=16 / chroma_me=1 / trellis=1 / 8x8dct=1 / cqm=0 / deadzone=21,11 / fast_pskip=0 / chroma_qp_offset=-2 / threads=18 / lookahead_threads=3 / sliced_threads=0 / nr=0 / decimate=1 / interlaced=0 / bluray_compat=0 / constrained_intra=0 / bframes=3 / b_pyramid=2 / b_adapt=1 / b_bias=0 / direct=1 / weightb=1 / open_gop=0 / weightp=2 / keyint=250 / keyint_min=23 / scenecut=40 / intra_refresh=0 / rc_lookahead=40 / rc=2pass / mbtree=1 / bitrate=9447 / ratetol=1.0 / qcomp=0.60 / qpmin=0 / qpmax=69 / qpstep=4 / cplxblur=20.0 / qblur=0.5 / ip_ratio=1.40 / aq=1:1.00
  25. Language                                 : English
  26. Default                                  : Yes
  27. Forced                                   : No

  28. Audio
  29. ID                                       : 2
  30. Format                                   : DTS ES
  31. Format/Info                              : Digital Theater Systems
  32. Commercial name                          : DTS-ES Matrix
  33. Codec ID                                 : A_DTS
  34. Duration                                 : 1 h 39 min
  35. Bit rate mode                            : Constant
  36. Bit rate                                 : 1 509 kb/s
  37. Channel(s)                               : 6 channels
  38. Channel(s)_Original                      : 7 channels
  39. Channel layout                           : C L R Ls Rs Cb LFE
  40. Sampling rate                            : 48.0 kHz
  41. Frame rate                               : 93.750 FPS (512 SPF)
  42. Bit depth                                : 24 bits
  43. Compression mode                         : Lossy
  44. Stream size                              : 1.05 GiB (14%)
  45. Language                                 : English
  46. Default                                  : Yes
  47. Forced                                   : No

  48. Text
  49. ID                                       : 3
  50. Format                                   : UTF-8
  51. Codec ID                                 : S_TEXT/UTF8
  52. Codec ID/Info                            : UTF-8 Plain Text
  53. Duration                                 : 14 s 347 ms
  54. Bit rate                                 : 89 b/s
  55. Count of elements                        : 5
  56. Stream size                              : 161 Bytes (0%)
  57. Title                                    : English-Forced
  58. Language                                 : English
  59. Default                                  : Yes
  60. Forced                                   : Yes

  61. Menu
  62. 00:00:00.000                             : en:00:00:00.000
  63. 00:02:30.025                             : en:00:02:30.025
  64. 00:07:22.609                             : en:00:07:22.609
  65. 00:11:00.159                             : en:00:11:00.159
  66. 00:14:59.524                             : en:00:14:59.524
  67. 00:17:57.785                             : en:00:17:57.785
  68. 00:22:03.322                             : en:00:22:03.322
  69. 00:24:44.483                             : en:00:24:44.483
  70. 00:27:49.877                             : en:00:27:49.877
  71. 00:30:19.776                             : en:00:30:19.776
  72. 00:34:56.011                             : en:00:34:56.011
  73. 00:38:16.377                             : en:00:38:16.377
  74. 00:43:10.087                             : en:00:43:10.087
  75. 00:48:16.060                             : en:00:48:16.060
  76. 00:51:35.301                             : en:00:51:35.301
  77. 00:54:27.055                             : en:00:54:27.055
  78. 00:57:18.101                             : en:00:57:18.101
  79. 01:00:27.833                             : en:01:00:27.833
  80. 01:04:34.913                             : en:01:04:34.913
  81. 01:08:04.497                             : en:01:08:04.497
  82. 01:12:08.282                             : en:01:12:08.282
  83. 01:15:09.964                             : en:01:15:09.964
  84. 01:19:10.162                             : en:01:19:10.162
  85. 01:22:16.515                             : en:01:22:16.515
  86. 01:24:49.543                             : en:01:24:49.543
  87. 01:27:01.341                             : en:01:27:01.341
  88. 01:30:49.569                             : en:01:30:49.569
  89. 01:33:00.450                             : en:01:33:00.450
复制代码




                                       
                                       

                                       
                                       
                                       




回复

使用道具 举报

懒得打字嘛,点击右侧快捷回复 【右侧内容,后台自定义】
您需要登录后才可以回帖 登录 | 立即加入

本版积分规则

Archiver|小黑屋| 蓝光电影网 |网站地图

Copyright © 2021 Comsenz Inc. Powered by 蓝光电影网

蓝光电影网

本站内容由用户自主分享和转载自互联网,转载目的在于传递更多信息,并不代表本网赞同其观点和对其真实性负责。

如有侵权、违反国家法律政策行为,请联系我们,我们会第一时间及时清除和处理!

举报反馈邮箱:[email protected]

快速回复 返回顶部 返回列表