找回密码

蓝光电影网

查看: 33|回复: 0

[喜剧] 功夫熊猫2/熊猫阿宝2 Kung.Fu.Panda.2.2011.1080p.BluRay.x264.DTS-FGT 6.78GB

[复制链接]
蓝光币
515
发表于 2020-11-24 09:08:09 | 显示全部楼层 |阅读模式


◎译  名 功夫熊猫2/熊猫阿宝2/阿宝正传2
◎片  名 Kung Fu Panda 2
◎年  代 2011
◎产  地 美国
◎类  别 笑剧 / 行动 / 动画 / 冒险
◎语  言 英语
◎上映日期 2011-05-26(美国) / 2011-05-28(中国大陆)
◎IMDb评分  7.2/10 from 250280 users
◎IMDb链接  https://www.imdb.com/title/tt1302011/
◎豆瓣评分 8.0/10 from 374951 users
◎豆瓣链接 https://movie.douban.com/subject/3233635/
◎片  长 91分钟
◎导  演 吕寅荣 Jennifer Yuh
◎编  剧 乔纳森·阿贝尔 Jonathan Aibel / 格伦·伯杰 Glenn Berger
◎主  演 杰克·布莱克 Jack Black
       安吉丽娜·朱莉 Angelina Jolie
       达斯汀·霍夫曼 Dustin Hoffman
       加里·奥德曼 Gary Oldman
       成龙 Jackie Chan
       塞斯·罗根 Seth Rogen
       刘玉玲 Lucy Liu
       大卫·克罗斯 David Cross
       吴汉章 James Hong
       杨紫琼 Michelle Yeoh
       丹尼·麦克布莱德 Danny McBride
       丹尼斯·海斯伯特 Dennis Haysbert
       尚格·云顿 Jean-Claude Van Damme
       维克多·加博 Victor Garber
       迈克·贝尔 Mike Bell
       艾普尔·洪 April Hong
       亚历山德拉·戈尔德·朱尔登 Alexandra Gold Jourden
       斯蒂芬·凯林 Stephen Kearin
       利亚姆·奈特 Liam Knight
       保罗·马祖斯基 Paul Mazursky
       丹·奥康纳 Dan O'Connor
       罗密·罗斯蒙特 Romy Rosemont
       莫瑞·史特林 Maury Sterling
       弗雷德·塔特西奥 Fred Tatasciore
       劳伦·汤姆 Lauren Tom
       康拉德·弗农 Conrad Vernon
       夏治世 Zhishi Xia
◎标  签 动画 | 美国 | 梦工场 | 笑剧 | 搞笑 | 3D | 2011 | 励志
◎简  介


  上一部中,熊猫阿宝(杰克·布莱克 Jack Black 配音)功成名就,成为名震四方的神龙大侠。常日里他伴同徒弟(达斯汀·霍夫曼 Dustin Hoffman 配音)以及盖世五侠:悍娇虎 (安吉丽娜·朱莉 Angelina Jolie 配音)、猴王(成龙 Jackie Chan 配音)、快螳螂(塞斯·罗根 Seth Rogen 配音)、俏小龙(刘玉玲 Lucy Liu 配音)、灵鹤(大卫·克罗斯 David Cross 配音)在战争谷修炼,生活悠哉游哉。这一日,一伙暴徒闯入山谷掠取金属材料,在与他们比武中阿宝意外发生幻觉,由此对自己的身世感应迷惑。
  
  另一方面,暴徒的俊白孔雀沈王爷(加里·奥德曼 Gary Oldman 配音)正图谋闯入王宫,称霸全中国。新的正邪大战拉开序幕,阿宝他们面临史无前例的应战……
◎获奖情况
  第84届奥斯卡金像奖 ?(2012)
  最好动画长片(提名) 吕寅荣
  
  第39届动画安妮奖 ?(2012)
  最好动画长片(提名)
  最好导演 吕寅荣
  最好配音(提名) 加里·奥德曼?/?吴汉章
  最好剪辑(提名)
  最好分镜(提名) 加里·格拉汉姆
  最好艺术指导 雷蒙德·兹巴奇
  最好动画脚色(提名)
  最好动画结果(提名)
  
  第17届美国批评家挑选电影奖 ?(2012)
  最好动画片(提名)
  
  第16届圣地亚哥影评人协会奖 ?(2011)
  最好动画片(提名)
  
  第13届美国青少年挑选奖 ?(2011)
  最好动画配音(提名) 杰克·布莱克
  1. Video
  2. ID                                       : 1
  3. Format                                   : AVC
  4. Format/Info                              : Advanced Video Codec
  5. Format profile                           : [email protected]
  6. Format settings                          : CABAC / 5 Ref Frames
  7. Format settings, CABAC                   : Yes
  8. Format settings, Reference frames        : 5 frames
  9. Codec ID                                 : V_MPEG4/ISO/AVC
  10. Duration                                 : 1 h 30 min
  11. Bit rate                                 : 9 000 kb/s
  12. Width                                    : 1 920 pixels
  13. Height                                   : 816 pixels
  14. Display aspect ratio                     : 2.35:1
  15. Frame rate mode                          : Constant
  16. Frame rate                               : 23.976 (24000/1001/189150) FPS
  17. Color space                              : YUV
  18. Chroma subsampling                       : 4:2:0
  19. Bit depth                                : 8 bits
  20. Scan type                                : Progressive
  21. Bits/(Pixel*Frame)                       : 0.240
  22. Stream size                              : 5.55 GiB (82%)
  23. Writing library                          : x264 core 119 r2106 07efeb4
  24. Encoding settings                        : cabac=1 / ref=5 / deblock=1:-3:-3 / analyse=0x3:0x133 / me=umh / subme=11 / psy=1 / psy_rd=0.90:0.00 / mixed_ref=1 / me_range=48 / chroma_me=1 / trellis=2 / 8x8dct=1 / cqm=0 / deadzone=21,11 / fast_pskip=0 / chroma_qp_offset=-2 / threads=12 / sliced_threads=0 / nr=0 / decimate=0 / interlaced=0 / bluray_compat=0 / constrained_intra=0 / bframes=7 / b_pyramid=2 / b_adapt=2 / b_bias=0 / direct=3 / weightb=1 / open_gop=0 / weightp=2 / keyint=250 / keyint_min=23 / scenecut=40 / intra_refresh=0 / rc_lookahead=40 / rc=2pass / mbtree=1 / bitrate=9000 / ratetol=1.0 / qcomp=0.60 / qpmin=0 / qpmax=69 / qpstep=4 / cplxblur=20.0 / qblur=0.5 / ip_ratio=1.40 / aq=2:0.80
  25. Language                                 : English
  26. Default                                  : Yes
  27. Forced                                   : No

  28. Audio #1
  29. ID                                       : 2
  30. Format                                   : DTS
  31. Format/Info                              : Digital Theater Systems
  32. Codec ID                                 : A_DTS
  33. Duration                                 : 1 h 30 min
  34. Bit rate mode                            : Constant
  35. Bit rate                                 : 1 509 kb/s
  36. Channel(s)                               : 6 channels
  37. Channel layout                           : C L R Ls Rs LFE
  38. Sampling rate                            : 48.0 kHz
  39. Frame rate                               : 93.750 FPS (512 SPF)
  40. Bit depth                                : 24 bits
  41. Compression mode                         : Lossy
  42. Stream size                              : 976 MiB (14%)
  43. Language                                 : English
  44. Default                                  : Yes
  45. Forced                                   : No

  46. Audio #2
  47. ID                                       : 3
  48. Format                                   : AC-3
  49. Format/Info                              : Audio Coding 3
  50. Commercial name                          : Dolby Digital
  51. Codec ID                                 : A_AC3
  52. Duration                                 : 1 h 30 min
  53. Bit rate mode                            : Constant
  54. Bit rate                                 : 224 kb/s
  55. Channel(s)                               : 2 channels
  56. Channel layout                           : L R
  57. Sampling rate                            : 48.0 kHz
  58. Frame rate                               : 31.250 FPS (1536 SPF)
  59. Compression mode                         : Lossy
  60. Stream size                              : 145 MiB (2%)
  61. Title                                    : Commentary
  62. Language                                 : English
  63. Service kind                             : Complete Main
  64. Default                                  : No
  65. Forced                                   : No

  66. Text #1
  67. ID                                       : 4
  68. Format                                   : UTF-8
  69. Codec ID                                 : S_TEXT/UTF8
  70. Codec ID/Info                            : UTF-8 Plain Text
  71. Language                                 : English
  72. Default                                  : No
  73. Forced                                   : No

  74. Text #2
  75. ID                                       : 5
  76. Format                                   : UTF-8
  77. Codec ID                                 : S_TEXT/UTF8
  78. Codec ID/Info                            : UTF-8 Plain Text
  79. Title                                    : Commentary
  80. Language                                 : English
  81. Default                                  : No
  82. Forced                                   : No

  83. Menu
  84. 00:00:00.000                             : en:Chapter 1
  85. 00:03:54.275                             : en:Chapter 2
  86. 00:10:35.343                             : en:Chapter 3
  87. 00:16:09.385                             : en:Chapter 4
  88. 00:21:15.773                             : en:Chapter 5
  89. 00:29:56.628                             : en:Chapter 6
  90. 00:36:53.878                             : en:Chapter 7
  91. 00:41:14.180                             : en:Chapter 8
  92. 00:49:44.815                             : en:Chapter 9
  93. 00:54:06.826                             : en:Chapter 10
  94. 00:58:54.781                             : en:Chapter 11
  95. 01:05:09.238                             : en:Chapter 12
  96. 01:11:43.799                             : en:Chapter 13
  97. 01:15:31.902                             : en:Chapter 14
  98. 01:21:15.871                             : en:Chapter 15
复制代码






                                       
                                       

                                       
                                       
                                       




回复

使用道具 举报

懒得打字嘛,点击右侧快捷回复 【右侧内容,后台自定义】
您需要登录后才可以回帖 登录 | 立即加入

本版积分规则

Archiver|小黑屋| 蓝光电影网 |网站地图

Copyright © 2021 Comsenz Inc. Powered by 蓝光电影网

蓝光电影网

本站内容由用户自主分享和转载自互联网,转载目的在于传递更多信息,并不代表本网赞同其观点和对其真实性负责。

如有侵权、违反国家法律政策行为,请联系我们,我们会第一时间及时清除和处理!

举报反馈邮箱:[email protected]

快速回复 返回顶部 返回列表