找回密码

蓝光电影网

查看: 14|回复: 0

[剧情] 罗马人 Romans.2017.1080p.BluRay.REMUX.AVC.DTS-HD.MA.5.1-FGT 14.28GB

[复制链接]
蓝光币
515
发表于 2019-6-30 22:46:26 | 显示全部楼层 |阅读模式


◎译  名 罗马人
◎片  名 Romans
◎年  代 2017
◎产  地 英国
◎类  别 剧情
◎语  言 英语
◎上映日期 2017-07-01(爱丁堡电影节)
◎IMDb评分  5.2/10 from 437 users
◎IMDb链接  http://www.imdb.com/title/tt5200368
◎豆瓣评分 7.6/10 from 127 users
◎豆瓣链接 https://movie.douban.com/subject/26915042/
◎片  长 91分钟
◎导  演 Ludwig Shammasian / Paul Shammasian
◎编  剧 Geoff Thompson
◎主  演 詹妮特·蒙哥马利 Janet Montgomery
      奥兰多·布鲁姆 Orlando Bloom
      查理·科里德-米尔斯 Charlie Creed-Miles
      安妮·雷德 Anne Reid
      詹姆斯·斯迈利 James Smillie
      Dino Fazzani
      Josh Myers
      Natasha Sparkes
      Alex Ferns
      Deborah Rock
      Kyle Rees

◎标  签 Orlando_Bloom | 英国 | 宗教 | 人性 | 剧情 | 文艺 | 人生 | OrlandoBloom
◎简  介  
  法国阔维影视已在柏林电影节上,将沙梅森兄弟执导,奥兰多·布鲁姆主演的影片[罗马人](Romans,暂译),葡萄牙、西班牙及拉丁美洲地域的刊行权售出,北美市场刊行权也已完成买卖,克日将公布买家。开花在片中饰演一位童年时曾蒙受神父凌虐的中年男人,本片估计年内上映。
  1. Video
  2. ID                                       : 1
  3. Format                                   : AVC
  4. Format/Info                              : Advanced Video Codec
  5. Format profile                           : [email protected]
  6. Format settings                          : CABAC / 4 Ref Frames
  7. Format settings, CABAC                   : Yes
  8. Format settings, ReFrames                : 4 frames
  9. Codec ID                                 : V_MPEG4/ISO/AVC
  10. Duration                                 : 1 h 34 min
  11. Bit rate mode                            : Variable
  12. Bit rate                                 : 19.9 Mb/s
  13. Maximum bit rate                         : 36.0 Mb/s
  14. Width                                    : 1 920 pixels
  15. Height                                   : 1 080 pixels
  16. Display aspect ratio                     : 16:9
  17. Frame rate mode                          : Constant
  18. Frame rate                               : 24.000 FPS
  19. Color space                              : YUV
  20. Chroma subsampling                       : 4:2:0
  21. Bit depth                                : 8 bits
  22. Scan type                                : Progressive
  23. Bits/(Pixel*Frame)                       : 0.400
  24. Stream size                              : 13.2 GiB (92%)
  25. Title                                    : Romans.2017.1080p.BluRay.REMUX.AVC.DTS-HD.MA.5.1-FGT
  26. Language                                 : English
  27. Default                                  : No
  28. Forced                                   : No
  29. Audio
  30. ID                                       : 2
  31. Format                                   : DTS XLL
  32. Format/Info                              : Digital Theater Systems
  33. Commercial name                          : DTS-HD Master Audio
  34. Codec ID                                 : A_DTS
  35. Duration                                 : 1 h 34 min
  36. Bit rate mode                            : Variable
  37. Bit rate                                 : 1 687 kb/s
  38. Channel(s)                               : 6 channels
  39. Channel layout                           : C L R Ls Rs LFE
  40. Sampling rate                            : 48.0 kHz
  41. Frame rate                               : 93.750 FPS (512 SPF)
  42. Bit depth                                : 16 bits
  43. Compression mode                         : Lossless
  44. Stream size                              : 1.12 GiB (8%)
  45. Title                                    : Romans.2017.1080p.BluRay.REMUX.AVC.DTS-HD.MA.5.1-FGT
  46. Language                                 : English
  47. Default                                  : Yes
  48. Forced                                   : No
  49. Menu
  50. 00:00:00.000                             : en:Chapter 01
  51. 00:04:48.041                             : en:Chapter 02
  52. 00:11:04.208                             : en:Chapter 03
  53. 00:17:26.208                             : en:Chapter 04
  54. 00:23:11.125                             : en:Chapter 05
  55. 00:29:12.750                             : en:Chapter 06
  56. 00:39:21.875                             : en:Chapter 07
  57. 00:49:09.041                             : en:Chapter 08
  58. 00:56:11.666                             : en:Chapter 09
  59. 01:01:05.666                             : en:Chapter 10
  60. 01:14:09.000                             : en:Chapter 11
  61. 01:24:28.666                             : en:Chapter 12
复制代码






                                       
                                       

                                       
                                       
                                       




回复

使用道具 举报

懒得打字嘛,点击右侧快捷回复 【右侧内容,后台自定义】
您需要登录后才可以回帖 登录 | 立即加入

本版积分规则

Archiver|小黑屋| 蓝光电影网 |网站地图

Copyright © 2021 Comsenz Inc. Powered by 蓝光电影网

蓝光电影网

本站内容由用户自主分享和转载自互联网,转载目的在于传递更多信息,并不代表本网赞同其观点和对其真实性负责。

如有侵权、违反国家法律政策行为,请联系我们,我们会第一时间及时清除和处理!

举报反馈邮箱:[email protected]

快速回复 返回顶部 返回列表