找回密码

蓝光电影网

查看: 15|回复: 0

[剧情] 朱迪思·赫恩的孤独感/朱迪思.赫恩的孤独感 The.Lonely.Passion.of.Judith.Hearne.1987.1080p.BluRay.REMUX.AVC.LPCM.1.0-FGT 29.37GB

[复制链接]
蓝光币
511
发表于 2019-6-27 18:41:35 | 显示全部楼层 |阅读模式


◎译  名 朱迪思·赫恩的孤独感 / 朱迪思.赫恩的孤独感
◎片  名 The Lonely Passion of Judith Hearne
◎年  代 1987
◎产  地 英国
◎类  别 剧情 / 恋爱
◎语  言 英语
◎上映日期 1987-12-23
◎IMDb评分  7.1/10 from 780 users
◎IMDb链接  http://www.imdb.com/title/tt0093431
◎豆瓣评分 0/10 from 0 users
◎豆瓣链接 https://movie.douban.com/subject/1306195/
◎片  长 116 分钟
◎导  演 杰克·克莱顿 Jack Clayton
◎编  剧 彼得·纳尔逊 Peter Nelson / 布莱恩·穆尔 Brian Moore
◎主  演 玛吉·史姑娘 Maggie Smith
      鲍勃·霍斯金斯 Bob Hoskins

◎标  签 MaggieSmith | 英国 | 英国电影 | 1987 | 1980s | 剧情 | JackClayton | 玛吉
◎简  介  
  Maggie Smith will rip your heart out!
  1. Video
  2. ID                                       : 1
  3. Format                                   : AVC
  4. Format/Info                              : Advanced Video Codec
  5. Format profile                           : [email protected]
  6. Format settings                          : CABAC / 3 Ref Frames
  7. Format settings, CABAC                   : Yes
  8. Format settings, ReFrames                : 3 frames
  9. Codec ID                                 : V_MPEG4/ISO/AVC
  10. Duration                                 : 1 h 56 min
  11. Bit rate mode                            : Variable
  12. Bit rate                                 : 35.0 Mb/s
  13. Maximum bit rate                         : 40.0 Mb/s
  14. Width                                    : 1 920 pixels
  15. Height                                   : 1 080 pixels
  16. Display aspect ratio                     : 16:9
  17. Frame rate mode                          : Constant
  18. Frame rate                               : 23.976 (24000/1001) FPS
  19. Color space                              : YUV
  20. Chroma subsampling                       : 4:2:0
  21. Bit depth                                : 8 bits
  22. Scan type                                : Progressive
  23. Bits/(Pixel*Frame)                       : 0.704
  24. Stream size                              : 28.4 GiB (97%)
  25. Title                                    : The.Lonely.Passion.of.Judith.Hearne.1987.1080p.BluRay.REMUX.AVC.LPCM.1.0-FGT
  26. Language                                 : English
  27. Default                                  : No
  28. Forced                                   : No
  29. Color range                              : Limited
  30. Color primaries                          : BT.709
  31. Transfer characteristics                 : BT.709
  32. Matrix coefficients                      : BT.709
  33. Audio
  34. ID                                       : 2
  35. Format                                   : PCM
  36. Format settings                          : Little / Signed
  37. Codec ID                                 : A_PCM/INT/LIT
  38. Duration                                 : 1 h 56 min
  39. Bit rate mode                            : Constant
  40. Bit rate                                 : 1 152 kb/s
  41. Sampling rate                            : 48.0 kHz
  42. Frame rate                               : 30.000 FPS (1600 SPF)
  43. Bit depth                                : 24 bits
  44. Stream size                              : 957 MiB (3%)
  45. Title                                    : The.Lonely.Passion.of.Judith.Hearne.1987.1080p.BluRay.REMUX.AVC.LPCM.1.0-FGT
  46. Language                                 : English
  47. Default                                  : Yes
  48. Forced                                   : No
  49. Text
  50. ID                                       : 3
  51. Format                                   : PGS
  52. Muxing mode                              : zlib
  53. Codec ID                                 : S_HDMV/PGS
  54. Codec ID/Info                            : Picture based subtitle format used on BDs/HD-DVDs
  55. Duration                                 : 1 h 55 min
  56. Bit rate                                 : 42.3 kb/s
  57. Count of elements                        : 3394
  58. Stream size                              : 34.9 MiB (0%)
  59. Title                                    : English-PGS
  60. Language                                 : English
  61. Default                                  : Yes
  62. Forced                                   : No
  63. Menu
  64. 00:00:00.000                             : en:Chapter 01
  65. 00:09:50.172                             : en:Chapter 02
  66. 00:20:13.086                             : en:Chapter 03
  67. 00:27:26.102                             : en:Chapter 04
  68. 00:39:57.561                             : en:Chapter 05
  69. 00:46:55.270                             : en:Chapter 06
  70. 00:59:31.568                             : en:Chapter 07
  71. 01:07:56.530                             : en:Chapter 08
  72. 01:20:00.212                             : en:Chapter 09
  73. 01:27:59.691                             : en:Chapter 10
  74. 01:38:15.389                             : en:Chapter 11
  75. 01:44:42.109                             : en:Chapter 12
复制代码






                                       
                                       

                                       
                                       
                                       




回复

使用道具 举报

懒得打字嘛,点击右侧快捷回复 【右侧内容,后台自定义】
您需要登录后才可以回帖 登录 | 立即加入

本版积分规则

Archiver|小黑屋| 蓝光电影网 |网站地图

Copyright © 2021 Comsenz Inc. Powered by 蓝光电影网

蓝光电影网

本站内容由用户自主分享和转载自互联网,转载目的在于传递更多信息,并不代表本网赞同其观点和对其真实性负责。

如有侵权、违反国家法律政策行为,请联系我们,我们会第一时间及时清除和处理!

举报反馈邮箱:[email protected]

快速回复 返回顶部 返回列表