找回密码

蓝光电影网

查看: 16|回复: 0

[剧情] 烈血大风暴/密西西比在燃烧 Mississippi.Burning.1988.REMASTERED.1080p.BluRay.REMUX.AVC.DTS-HD.MA.2.0-FGT 29.86GB

[复制链接]
蓝光币
511
发表于 2019-6-27 02:04:01 | 显示全部楼层 |阅读模式


◎译  名 烈血大风暴 / 密西西比在熄灭 / 烈血暴潮
◎片  名 Mississippi Burning
◎年  代 1988
◎产  地 美国
◎类  别 剧情 / 悬疑 / 惊悚 / 犯罪
◎语  言 英语
◎上映日期 1988-12-09
◎IMDb评分  7.8/10 from 79138 users
◎IMDb链接  http://www.imdb.com/title/tt0095647
◎豆瓣评分 8.0/10 from 1391 users
◎豆瓣链接 https://movie.douban.com/subject/1300365/
◎片  长 128 分钟
◎导  演 Alan Parker
◎编  剧 Chris Gerolmo
◎主  演 Gene Hackman
      Willem Dafoe
      Frances McDormand
      Brad Dourif
      R. Lee Ermey

◎标  签 美国 | 种族 | 剧情 | 犯罪 | 1988 | 美国电影 | AlanParker | 艾伦·帕克
◎简  介  
  故事发生在1964年的6月,一辆载有三位民权主义者的车辆被三K党所劫持,以后一行人音信全无。鲁帕特(吉恩·哈克曼 Gene Hackman 饰)和艾伦(威廉·达福 Willem Dafoe 饰)是两帮观察局的捕快,他们被指派观察这起卑劣的事务,但是,当两人到达小镇起头观察时,却发现他们的工作遭受了重重的困难,没有人愿意相信他们,更没有人可以供给有代价的线索。
皮尔(布拉德·道里夫 Brad Dourif 饰)是小镇的副镇长,同时亦是一位果断的三K党成员,本性粗鲁邪恶的他经常将脆弱温顺的妻子(弗兰西斯·麦克多蒙德 Frances McDormand 饰)揍得皮开肉绽。鲁帕特非常怜悯皮尔妻子的遭受,随着时候的推移,皮尔的妻子渐渐对鲁帕特发生了豪情,这让鲁帕特和艾伦看到了案件的冲破口。
◎获奖情况  
  第61届奥斯卡金像奖(1989)
  最好影片(提名) Robert F. Colesberry / Frederick Zollo
  最好导演(提名) 艾伦·帕克
  最好男配角(提名) 吉恩·哈克曼
  最好女配角(提名) 弗兰西斯·麦克多蒙德
  最好摄影 Peter Biziou
  最好剪辑(提名) 格里·汉布林
  最好声响(提名) Danny Michael / Robert J. Litt / 里克·克莱恩 / Elliot Tyson
  第39届柏林国际电影节(1989)
  金熊奖 最好影片(提名) 艾伦·帕克
  银熊奖 最好男演员 吉恩·哈克曼

  1. Video
  2. ID                                       : 1
  3. Format                                   : AVC
  4. Format/Info                              : Advanced Video Codec
  5. Format profile                           : [email protected]
  6. Format settings                          : CABAC / 4 Ref Frames
  7. Format settings, CABAC                   : Yes
  8. Format settings, ReFrames                : 4 frames
  9. Codec ID                                 : V_MPEG4/ISO/AVC
  10. Duration                                 : 2 h 6 min
  11. Bit rate mode                            : Constant
  12. Bit rate                                 : 33.0 Mb/s
  13. Width                                    : 1 920 pixels
  14. Height                                   : 1 080 pixels
  15. Display aspect ratio                     : 16:9
  16. Frame rate mode                          : Constant
  17. Frame rate                               : 23.976 (24000/1001) FPS
  18. Color space                              : YUV
  19. Chroma subsampling                       : 4:2:0
  20. Bit depth                                : 8 bits
  21. Scan type                                : Progressive
  22. Bits/(Pixel*Frame)                       : 0.664
  23. Stream size                              : 28.3 GiB (95%)
  24. Title                                    : Mississippi.Burning.1988.REMASTERED.1080p.BluRay.REMUX.AVC.DTS-HD.MA.2.0-FGT
  25. Language                                 : English
  26. Default                                  : No
  27. Forced                                   : No
  28. Audio #1
  29. ID                                       : 2
  30. Format                                   : DTS XLL
  31. Format/Info                              : Digital Theater Systems
  32. Commercial name                          : DTS-HD Master Audio
  33. Codec ID                                 : A_DTS
  34. Duration                                 : 2 h 6 min
  35. Bit rate mode                            : Variable
  36. Bit rate                                 : 1 558 kb/s
  37. Channel(s)                               : 2 channels
  38. Channel layout                           : L R
  39. Sampling rate                            : 48.0 kHz
  40. Frame rate                               : 93.750 FPS (512 SPF)
  41. Bit depth                                : 16 bits
  42. Compression mode                         : Lossless
  43. Stream size                              : 1.38 GiB (5%)
  44. Title                                    : Mississippi.Burning.1988.REMASTERED.1080p.BluRay.REMUX.AVC.DTS-HD.MA.2.0-FGT
  45. Language                                 : English
  46. Default                                  : Yes
  47. Forced                                   : No
  48. Audio #2
  49. ID                                       : 3
  50. Format                                   : AC-3
  51. Format/Info                              : Audio Coding 3
  52. Commercial name                          : Dolby Digital
  53. Codec ID                                 : A_AC3
  54. Duration                                 : 2 h 6 min
  55. Bit rate mode                            : Constant
  56. Bit rate                                 : 192 kb/s
  57. Channel(s)                               : 2 channels
  58. Channel layout                           : L R
  59. Sampling rate                            : 48.0 kHz
  60. Frame rate                               : 31.250 FPS (1536 SPF)
  61. Bit depth                                : 16 bits
  62. Compression mode                         : Lossy
  63. Stream size                              : 174 MiB (1%)
  64. Title                                    : Mississippi.Burning.1988.REMASTERED.1080p.BluRay.REMUX.AVC.DTS-HD.MA.2.0-FGT
  65. Language                                 : English
  66. Service kind                             : Complete Main
  67. Default                                  : No
  68. Forced                                   : No
  69. Text
  70. ID                                       : 4
  71. Format                                   : PGS
  72. Muxing mode                              : zlib
  73. Codec ID                                 : S_HDMV/PGS
  74. Codec ID/Info                            : Picture based subtitle format used on BDs/HD-DVDs
  75. Duration                                 : 1 h 56 min
  76. Bit rate                                 : 22.7 kb/s
  77. Count of elements                        : 2178
  78. Stream size                              : 19.0 MiB (0%)
  79. Title                                    : English-PGS
  80. Language                                 : English
  81. Default                                  : Yes
  82. Forced                                   : No
  83. Menu
  84. 00:00:00.000                             : en:Chapter 00
  85. 00:08:11.949                             : en:Chapter 01
  86. 00:19:37.426                             : en:Chapter 02
  87. 00:33:00.061                             : en:Chapter 03
  88. 00:51:27.250                             : en:Chapter 04
  89. 01:09:39.216                             : en:Chapter 05
  90. 01:31:11.674                             : en:Chapter 06
  91. 01:47:43.707                             : en:Chapter 07
复制代码






                                       
                                       

                                       
                                       
                                       




回复

使用道具 举报

懒得打字嘛,点击右侧快捷回复 【右侧内容,后台自定义】
您需要登录后才可以回帖 登录 | 立即加入

本版积分规则

Archiver|小黑屋| 蓝光电影网 |网站地图

Copyright © 2021 Comsenz Inc. Powered by 蓝光电影网

蓝光电影网

本站内容由用户自主分享和转载自互联网,转载目的在于传递更多信息,并不代表本网赞同其观点和对其真实性负责。

如有侵权、违反国家法律政策行为,请联系我们,我们会第一时间及时清除和处理!

举报反馈邮箱:[email protected]

快速回复 返回顶部 返回列表