找回密码

蓝光电影网

查看: 87|回复: 1

[喜剧] 完美陌生人(西班牙版) Perfect.Strangers.2017.1080p.BluRay.x264-USURY 7.74GB

[复制链接]
蓝光币
515
发表于 2020-11-23 09:39:40 | 显示全部楼层 |阅读模式


◎译  名 完善陌生人(西班牙版)/Perfect Strangers/完善陌生人西班牙版
◎片  名 Perfectos desconocidos
◎年  代 2017
◎产  地 意大利,西班牙
◎类  别 笑剧
◎语  言 西班牙语
◎上映日期 2017-12-01(西班牙)
◎IMDb评分  6.9/10 from 11990 users
◎IMDb链接  https://www.imdb.com/title/tt6101820/
◎豆瓣评分 8.4/10 from 48777 users
◎豆瓣链接 https://movie.douban.com/subject/26888905/
◎片  长 97分钟
◎导  演 阿莱克斯·德·拉·伊格莱西亚 álex de la Iglesia
◎编  剧 阿莱克斯·德·拉·伊格莱西亚 álex de la Iglesia / 豪尔赫·格力加耶切瓦利亚 Jorge Guerricaechevarría / 保罗·杰诺维塞 Paolo Genovese / 罗兰多·拉维洛 Rolando Ravello
◎主  演 贝伦·鲁埃达 Belén Rueda
       爱德华·费尔南德斯 Eduard Fernández
       欧内斯特·艾戴里欧 Ernesto Alterio
       胡安娜·阿科斯塔 Juana Acosta
       爱德华多·诺列加 Eduardo Noriega
       达夫内·费尔南德斯 Dafne Fernández
       Pepón Nieto
◎标  签 人性 | 黑色诙谐 | 心理 | 西班牙 | 感情 | 剧情 | 家庭 | 笑剧
◎简  介


  西班牙版《完善陌生人》,翻拍自2016大热的意大利同名影片《完善陌生人》。七个终年的好朋友聚在一路吃晚饭。忽然他们决议与对方分享每一个短信的内容,包括他们收到的电子邮件和电话,由此很多奥秘起头公布而他们之间的关系起头发生波动。
  1. Video
  2. ID                                       : 1
  3. Format                                   : AVC
  4. Format/Info                              : Advanced Video Codec
  5. Format profile                           : [email protected]
  6. Format settings                          : CABAC / 5 Ref Frames
  7. Format settings, CABAC                   : Yes
  8. Format settings, Reference frames        : 5 frames
  9. Codec ID                                 : V_MPEG4/ISO/AVC
  10. Duration                                 : 1 h 40 min
  11. Bit rate                                 : 9 409 kb/s
  12. Width                                    : 1 920 pixels
  13. Height                                   : 800 pixels
  14. Display aspect ratio                     : 2.40:1
  15. Frame rate mode                          : Constant
  16. Frame rate                               : 23.976 (24000/1001/189150) FPS
  17. Color space                              : YUV
  18. Chroma subsampling                       : 4:2:0
  19. Bit depth                                : 8 bits
  20. Scan type                                : Progressive
  21. Bits/(Pixel*Frame)                       : 0.255
  22. Stream size                              : 6.59 GiB (86%)
  23. Writing library                          : x264 core 155 r2901 7d0ff22
  24. Encoding settings                        : cabac=1 / ref=5 / deblock=1:-3:-3 / analyse=0x3:0x133 / me=umh / subme=9 / psy=1 / psy_rd=1.00:0.00 / mixed_ref=1 / me_range=16 / chroma_me=1 / trellis=2 / 8x8dct=1 / cqm=0 / deadzone=21,11 / fast_pskip=0 / chroma_qp_offset=-2 / threads=24 / lookahead_threads=2 / sliced_threads=0 / nr=0 / decimate=1 / interlaced=0 / bluray_compat=0 / constrained_intra=0 / bframes=3 / b_pyramid=2 / b_adapt=1 / b_bias=0 / direct=3 / weightb=1 / open_gop=0 / weightp=2 / keyint=240 / keyint_min=24 / scenecut=40 / intra_refresh=0 / rc_lookahead=50 / rc=2pass / mbtree=1 / bitrate=9409 / ratetol=1.0 / qcomp=0.60 / qpmin=0 / qpmax=69 / qpstep=4 / cplxblur=20.0 / qblur=0.5 / ip_ratio=1.40 / aq=1:1.00
  25. Language                                 : English
  26. Default                                  : Yes
  27. Forced                                   : No

  28. Audio
  29. ID                                       : 2
  30. Format                                   : DTS
  31. Format/Info                              : Digital Theater Systems
  32. Codec ID                                 : A_DTS
  33. Duration                                 : 1 h 40 min
  34. Bit rate mode                            : Constant
  35. Bit rate                                 : 1 509 kb/s
  36. Channel(s)                               : 6 channels
  37. Channel layout                           : C L R Ls Rs LFE
  38. Sampling rate                            : 48.0 kHz
  39. Frame rate                               : 93.750 FPS (512 SPF)
  40. Bit depth                                : 24 bits
  41. Compression mode                         : Lossy
  42. Stream size                              : 1.06 GiB (14%)
  43. Language                                 : Spanish
  44. Default                                  : Yes
  45. Forced                                   : No

  46. Text
  47. ID                                       : 3
  48. Format                                   : UTF-8
  49. Codec ID                                 : S_TEXT/UTF8
  50. Codec ID/Info                            : UTF-8 Plain Text
  51. Duration                                 : 1 h 39 min
  52. Bit rate                                 : 77 b/s
  53. Count of elements                        : 1691
  54. Stream size                              : 56.6 KiB (0%)
  55. Title                                    : English
  56. Language                                 : English
  57. Default                                  : Yes
  58. Forced                                   : Yes

  59. Menu
  60. 00:00:00.000                             : en:00:00:00.000
  61. 00:08:28.258                             : en:00:08:28.258
  62. 00:15:45.403                             : en:00:15:45.403
  63. 00:24:07.571                             : en:00:24:07.571
  64. 00:38:11.039                             : en:00:38:11.039
  65. 00:46:04.971                             : en:00:46:04.971
  66. 00:55:18.732                             : en:00:55:18.732
  67. 00:59:26.480                             : en:00:59:26.480
  68. 01:10:00.071                             : en:01:10:00.071
  69. 01:16:42.890                             : en:01:16:42.890
  70. 01:28:13.663                             : en:01:28:13.663
  71. 01:34:44.888                             : en:01:34:44.888
复制代码




                                       
                                       

                                       
                                       
                                       




回复

使用道具 举报

蓝光币
184
发表于 2021-8-27 21:50:19 | 显示全部楼层

楼主太厉害了!楼主,电影应该很好看我觉得蓝光电影网真是个好地方!
回复 支持 反对

使用道具 举报

懒得打字嘛,点击右侧快捷回复 【右侧内容,后台自定义】
您需要登录后才可以回帖 登录 | 立即加入

本版积分规则

Archiver|小黑屋| 蓝光电影网 |网站地图

Copyright © 2021 Comsenz Inc. Powered by 蓝光电影网

蓝光电影网

本站内容由用户自主分享和转载自互联网,转载目的在于传递更多信息,并不代表本网赞同其观点和对其真实性负责。

如有侵权、违反国家法律政策行为,请联系我们,我们会第一时间及时清除和处理!

举报反馈邮箱:[email protected]

快速回复 返回顶部 返回列表