找回密码

蓝光电影网

查看: 12|回复: 0

[剧情] 旺达 Wanda.1970.1080p.BluRay.REMUX.AVC.LPCM.1.0-FGT 26.35GB

[复制链接]
蓝光币
511
发表于 2019-6-27 02:02:06 | 显示全部楼层 |阅读模式


◎译  名 旺达
◎片  名 Wanda
◎年  代 1970
◎产  地 美国
◎类  别 剧情 / 犯罪
◎语  言 英语
◎上映日期 1970-09(威尼斯电影节) / 1971-02-28(美国)
◎IMDb评分  7.1/10 from 2476 users
◎IMDb链接  http://www.imdb.com/title/tt0067961
◎豆瓣评分 7.8/10 from 242 users
◎豆瓣链接 https://movie.douban.com/subject/1855338/
◎片  长 102 分钟
◎导  演 芭芭拉·洛登 Barbara Loden
◎编  剧 芭芭拉·洛登 Barbara Loden
◎主  演 芭芭拉·洛登 Barbara Loden
      迈克尔·希金斯 Michael Higgins

◎标  签 美国 | 1970s | 1970 | BarbaraLoden | 芭芭拉·洛登 | 美国电影 | 女性 | CC
◎简  介  
  In grim, rust-belt Pennsylvania, Wanda is down and out. She works sporadically, has abandoned her husband and children, sleeps on her sister's couch, drinks and smokes too much, and goes home with men just to have a roof over her head. One night she walks into a bar after closing and finds a nervous Mr. Dennis pacing. She takes up with him, and he proves to be a criminal. They go on the road, visit his father, and he plans a robbery. He's rude and demanding; Wanda accepts his abuse docilely. What future does she have?
◎获奖情况  
  第31届威尼斯电影节(1970)
  帕西内蒂奖 最好本国电影 芭芭拉·洛登

  1. Video
  2. ID                                       : 1
  3. Format                                   : AVC
  4. Format/Info                              : Advanced Video Codec
  5. Format profile                           : [email protected]
  6. Format settings                          : CABAC / 4 Ref Frames
  7. Format settings, CABAC                   : Yes
  8. Format settings, ReFrames                : 4 frames
  9. Codec ID                                 : V_MPEG4/ISO/AVC
  10. Duration                                 : 1 h 43 min
  11. Bit rate mode                            : Variable
  12. Bit rate                                 : 35.4 Mb/s
  13. Maximum bit rate                         : 37.0 Mb/s
  14. Width                                    : 1 920 pixels
  15. Height                                   : 1 080 pixels
  16. Display aspect ratio                     : 16:9
  17. Frame rate mode                          : Constant
  18. Frame rate                               : 23.976 (24000/1001) FPS
  19. Color space                              : YUV
  20. Chroma subsampling                       : 4:2:0
  21. Bit depth                                : 8 bits
  22. Scan type                                : Progressive
  23. Bits/(Pixel*Frame)                       : 0.711
  24. Stream size                              : 25.5 GiB (97%)
  25. Title                                    : Wanda.1970.1080p.BluRay.REMUX.AVC.LPCM.1.0-FGT
  26. Language                                 : English
  27. Default                                  : No
  28. Forced                                   : No
  29. Audio
  30. ID                                       : 2
  31. Format                                   : PCM
  32. Format settings                          : Little / Signed
  33. Codec ID                                 : A_PCM/INT/LIT
  34. Duration                                 : 1 h 43 min
  35. Bit rate mode                            : Constant
  36. Bit rate                                 : 1 152 kb/s
  37. Sampling rate                            : 48.0 kHz
  38. Frame rate                               : 30.000 FPS (1600 SPF)
  39. Bit depth                                : 24 bits
  40. Stream size                              : 851 MiB (3%)
  41. Title                                    : Wanda.1970.1080p.BluRay.REMUX.AVC.LPCM.1.0-FGT
  42. Language                                 : English
  43. Default                                  : Yes
  44. Forced                                   : No
  45. Text
  46. ID                                       : 3
  47. Format                                   : PGS
  48. Muxing mode                              : zlib
  49. Codec ID                                 : S_HDMV/PGS
  50. Codec ID/Info                            : Picture based subtitle format used on BDs/HD-DVDs
  51. Duration                                 : 1 h 40 min
  52. Bit rate                                 : 22.6 kb/s
  53. Count of elements                        : 1494
  54. Stream size                              : 16.2 MiB (0%)
  55. Title                                    : English-PGS
  56. Language                                 : English
  57. Default                                  : Yes
  58. Forced                                   : No
  59. Menu
  60. 00:00:00.000                             : en:Chapter 01
  61. 00:01:21.498                             : en:Chapter 02
  62. 00:01:48.525                             : en:Chapter 03
  63. 00:05:21.237                             : en:Chapter 04
  64. 00:13:44.198                             : en:Chapter 05
  65. 00:21:12.145                             : en:Chapter 06
  66. 00:25:48.713                             : en:Chapter 07
  67. 00:32:34.494                             : en:Chapter 08
  68. 00:41:33.699                             : en:Chapter 09
  69. 00:47:57.124                             : en:Chapter 10
  70. 00:54:17.879                             : en:Chapter 11
  71. 01:01:09.207                             : en:Chapter 12
  72. 01:08:10.628                             : en:Chapter 13
  73. 01:14:04.523                             : en:Chapter 14
  74. 01:19:15.333                             : en:Chapter 15
  75. 01:22:53.551                             : en:Chapter 16
  76. 01:27:43.800                             : en:Chapter 17
  77. 01:32:12.360                             : en:Chapter 18
  78. 01:36:41.879                             : en:Chapter 19
  79. 01:42:10.749                             : en:Chapter 20
复制代码






                                       
                                       

                                       
                                       
                                       




回复

使用道具 举报

懒得打字嘛,点击右侧快捷回复 【右侧内容,后台自定义】
您需要登录后才可以回帖 登录 | 立即加入

本版积分规则

Archiver|小黑屋| 蓝光电影网 |网站地图

Copyright © 2021 Comsenz Inc. Powered by 蓝光电影网

蓝光电影网

本站内容由用户自主分享和转载自互联网,转载目的在于传递更多信息,并不代表本网赞同其观点和对其真实性负责。

如有侵权、违反国家法律政策行为,请联系我们,我们会第一时间及时清除和处理!

举报反馈邮箱:[email protected]

快速回复 返回顶部 返回列表