找回密码

蓝光电影网

查看: 10|回复: 0

[动作] 移动迷宫/迷宫行者 The.Maze.Runner.2014.1080p.BluRay.x264-SPARKS 7.94GB

[复制链接]
蓝光币
515
发表于 2019-8-26 03:24:58 | 显示全部楼层 |阅读模式


◎译  名 移动迷宫 / 迷宫行者
◎片  名 The Maze Runner
◎年  代 2014
◎产  地 美国 / 英国
◎类  别 行动 / 科幻 / 冒险
◎语  言 英语
◎上映日期 2014-09-19(美国) / 2014-10-28(中国大陆)
◎IMDb评分  6.8/10 from 390740 users
◎IMDb链接  http://www.imdb.com/title/tt1790864
◎豆瓣评分 6.9/10 from 146742 users
◎豆瓣链接 https://movie.douban.com/subject/21349345/
◎片  长 113分钟
◎导  演 韦斯·鲍尔 Wes Ball
◎编  剧 诺亚·奥本海姆 Noah Oppenheim / 格兰特·迈尔斯 Grant Myers / T·S·诺林 T.S. Nowlin / 詹姆斯·达什纳 James Dashner
◎主  演 迪伦·欧布莱恩 Dylan O'Brien
       阿梅尔·艾米恩 Aml Ameen
       李基弘 Ki Hong Lee
       布雷克·库珀 Blake Cooper
       托马斯·布罗迪-桑斯特 Thomas Brodie-Sangster
       威尔·保尔特 Will Poulter
       德克斯特·达登 Dexter Darden
       卡雅·斯考达里奥 Kaya Scodelario
       克里斯·谢菲尔德 Chris Sheffield
       乔·阿德勒 Joe Adler
       亚历山大·弗洛里斯 Alexander Flores
       雅各布·拉提摩尔 Jacob Latimore
       兰德尔·D·坎宁安 Randall D. Cunningham
       派翠西娅·克拉克森 Patricia Clarkson
       唐·麦克马纳斯 Don McManus

◎标  签 科幻 | 美国 | 悬疑 | 2014 | 反乌托邦 | 行动 | 惊悚 | 小说改编
◎简  介  
  男孩托马斯(迪伦·欧布莱恩 Dylan O'Brien 饰)在电梯中醒来,希奇的是他除了名字之外什么都记不得。当电梯翻开,他来到了一个陌生的地方“林间空地”。这里四周被高峻的石头墙包围着,墙内住着很多男孩,有纽特(托马斯·桑斯特 Thomas Sangster 饰)、查克(布雷克·库珀 Blake Cooper 饰)、米诺(李基弘 Ki Hong Lee 饰)等人,他们都被困在迷宫里,而墙外还有一群庞大的怪兽威胁着。一天,电梯为他们送来了一个女孩特雷莎(卡雅·斯考达里奥 Kaya Scodelario 饰),她是来这里的第一个女孩。尔后,迷宫逐步起头发生变化,一切都堕入了紊乱中,托马斯和特雷莎决议一路走上破解迷宫之路,找出迷宫背后使人毛骨悚然的奥秘。
  影片改编自詹姆斯·达什纳撰写的同名反乌托邦科幻小说三部曲的第一本。
◎获奖情况  
  第17届美国青少年挑选奖(2015)
  最好行动片(提名)
  最好行动片男演员(提名) 迪伦·奥布莱恩
  最好行动片女演员(提名) 卡雅·斯考达里奥
  最好冲破表演电影新星(提名) 托马斯·布罗迪-桑斯特
  最好银幕拍档(提名) 迪伦·奥布莱恩 / 托马斯·布罗迪-桑斯特
  第1届豆瓣电影年度榜单(2014)
  11月最受关注电影(提名)
  1. Video
  2. ID                                       : 1
  3. Format                                   : AVC
  4. Format/Info                              : Advanced Video Codec
  5. Format profile                           : [email protected]
  6. Format settings                          : CABAC / 5 Ref Frames
  7. Format settings, CABAC                   : Yes
  8. Format settings, Reference frames        : 5 frames
  9. Codec ID                                 : V_MPEG4/ISO/AVC
  10. Duration                                 : 1 h 53 min
  11. Bit rate                                 : 8 512 kb/s
  12. Width                                    : 1 920 pixels
  13. Height                                   : 800 pixels
  14. Display aspect ratio                     : 2.40:1
  15. Frame rate mode                          : Constant
  16. Frame rate                               : 23.976 FPS
  17. Color space                              : YUV
  18. Chroma subsampling                       : 4:2:0
  19. Bit depth                                : 8 bits
  20. Scan type                                : Progressive
  21. Bits/(Pixel*Frame)                       : 0.231
  22. Stream size                              : 6.59 GiB (83%)
  23. Writing library                          : x264 core 142 r2479 dd79a61
  24. Encoding settings                        : cabac=1 / ref=5 / deblock=1:0:0 / analyse=0x3:0x133 / me=umh / subme=7 / psy=1 / psy_rd=1.00:0.00 / mixed_ref=1 / me_range=16 / chroma_me=1 / trellis=1 / 8x8dct=1 / cqm=0 / deadzone=21,11 / fast_pskip=0 / chroma_qp_offset=-2 / threads=18 / lookahead_threads=3 / sliced_threads=0 / nr=0 / decimate=1 / interlaced=0 / bluray_compat=0 / constrained_intra=0 / bframes=3 / b_pyramid=2 / b_adapt=1 / b_bias=0 / direct=1 / weightb=1 / open_gop=0 / weightp=2 / keyint=250 / keyint_min=23 / scenecut=40 / intra_refresh=0 / rc_lookahead=40 / rc=2pass / mbtree=1 / bitrate=8512 / ratetol=1.0 / qcomp=0.60 / qpmin=0 / qpmax=69 / qpstep=4 / cplxblur=20.0 / qblur=0.5 / ip_ratio=1.40 / aq=1:1.00
  25. Language                                 : English
  26. Default                                  : Yes
  27. Forced                                   : No

  28. Audio
  29. ID                                       : 2
  30. Format                                   : DTS ES
  31. Format/Info                              : Digital Theater Systems
  32. Commercial name                          : DTS-ES Matrix
  33. Codec ID                                 : A_DTS
  34. Duration                                 : 1 h 53 min
  35. Bit rate mode                            : Constant
  36. Bit rate                                 : 1 509 kb/s
  37. Channel(s)                               : 6 channels
  38. Channel(s)_Original                      : 7 channels
  39. Channel layout                           : C L R Ls Rs Cb LFE
  40. Sampling rate                            : 48.0 kHz
  41. Frame rate                               : 93.750 FPS (512 SPF)
  42. Bit depth                                : 24 bits
  43. Compression mode                         : Lossy
  44. Stream size                              : 1.20 GiB (15%)
  45. Language                                 : English
  46. Default                                  : Yes
  47. Forced                                   : No

  48. Menu
  49. 00:00:00.000                             : en:00:00:00.000
  50. 00:03:12.651                             : en:00:03:12.651
  51. 00:07:15.977                             : en:00:07:15.977
  52. 00:10:25.250                             : en:00:10:25.250
  53. 00:14:15.563                             : en:00:14:15.563
  54. 00:17:21.249                             : en:00:17:21.249
  55. 00:19:33.339                             : en:00:19:33.339
  56. 00:23:21.025                             : en:00:23:21.025
  57. 00:24:36.392                             : en:00:24:36.392
  58. 00:28:13.108                             : en:00:28:13.108
  59. 00:31:26.009                             : en:00:31:26.009
  60. 00:34:12.050                             : en:00:34:12.050
  61. 00:37:11.813                             : en:00:37:11.813
  62. 00:41:00.875                             : en:00:41:00.875
  63. 00:42:16.617                             : en:00:42:16.617
  64. 00:45:47.453                             : en:00:45:47.453
  65. 00:48:31.826                             : en:00:48:31.826
  66. 00:52:57.800                             : en:00:52:57.800
  67. 00:55:21.777                             : en:00:55:21.777
  68. 00:57:58.809                             : en:00:57:58.809
  69. 00:59:31.151                             : en:00:59:31.151
  70. 01:01:35.275                             : en:01:01:35.275
  71. 01:05:13.910                             : en:01:05:13.910
  72. 01:08:42.410                             : en:01:08:42.410
  73. 01:12:14.247                             : en:01:12:14.247
  74. 01:14:22.833                             : en:01:14:22.833
  75. 01:20:27.823                             : en:01:20:27.823
  76. 01:22:25.649                             : en:01:22:25.649
  77. 01:25:38.175                             : en:01:25:38.175
  78. 01:29:41.585                             : en:01:29:41.585
  79. 01:33:49.457                             : en:01:33:49.457
  80. 01:36:43.256                             : en:01:36:43.256
  81. 01:39:33.426                             : en:01:39:33.426
  82. 01:43:05.596                             : en:01:43:05.596
  83. 01:45:08.219                             : en:01:45:08.219
  84. 01:46:12.658                             : en:01:46:12.658
复制代码




                                       
                                       

                                       
                                       
                                       




回复

使用道具 举报

懒得打字嘛,点击右侧快捷回复 【右侧内容,后台自定义】
您需要登录后才可以回帖 登录 | 立即加入

本版积分规则

Archiver|小黑屋| 蓝光电影网 |网站地图

Copyright © 2021 Comsenz Inc. Powered by 蓝光电影网

蓝光电影网

本站内容由用户自主分享和转载自互联网,转载目的在于传递更多信息,并不代表本网赞同其观点和对其真实性负责。

如有侵权、违反国家法律政策行为,请联系我们,我们会第一时间及时清除和处理!

举报反馈邮箱:[email protected]

快速回复 返回顶部 返回列表