找回密码

蓝光电影网

查看: 16|回复: 0

[剧情] 余波/情敌 The.Aftermath.2019.1080p.BluRay.REMUX.AVC.DTS-HD.MA.5.1-FGT 26.96GB

[复制链接]
蓝光币
515
发表于 2019-6-26 22:12:27 | 显示全部楼层 |阅读模式


◎译  名 余波 / 情,敌(台) / 仇敌妻(港)
◎片  名 The Aftermath
◎年  代 2019
◎产  地 英国 / 美国 / 德国
◎类  别 剧情 / 恋爱 / 战争
◎语  言 英语
◎上映日期 2019-03-01(英国) / 2019-03-15(美国)
◎IMDb评分  6.3/10 from 2344 users
◎IMDb链接  http://www.imdb.com/title/tt5977276
◎豆瓣评分 6.5/10 from 212 users
◎豆瓣链接 https://movie.douban.com/subject/26857860/
◎片  长 108分钟
◎导  演 詹姆斯·肯特 James Kent
◎编  剧 乔·施雷普内尔 Joe Shrapnel / 安娜·沃特豪斯 Anna Waterhouse / 瑞迪安·布鲁克 Rhidian Brook
◎主  演 亚历山大·斯卡斯加德 Alexander Skarsg?rd
      凯拉·奈特莉 Keira Knightley
      杰森·克拉克 Jason Clarke
      凯特·菲利普斯 Kate Phillips
      费昂·奥谢 Fionn O'Shea
      雅尼克·许曼 Jannik Schümann
      亚历山大·吉尔 Alexander Scheer
      吉姆·海伊 Jim High
      弗雷德里克·普雷斯顿 Frederick Preston
      汤姆·贝尔 Tom Bell
      Abigail Rice
      Logan Hillier
      Flora Thiemann
      Joseph Arkley
      Claudia Vasekova

◎标  签 KeiraKnightley | 英国 | 恋爱 | 战争 | AlexanderSkarsg?rd | 2019 | 剧情 | 英国电影
◎简  介  
  凯拉·奈特莉(Keira Knightley)与亚历山大·斯卡斯加德(Alexander Skarsgard)日前预备加盟一部名为《余波》(The Aftermath)的新片,该片由福克斯探照灯公司建造,是一部报告二战战后故事的文艺片。
《余波》按照Rhidian Brook同名小说改编,故事设定在1946年二战刚竣事的德国汉堡。英军上校刘易斯受命驻扎在这座城市,负责重建工作,他的妻子瑞切尔以及11岁的小儿子艾德蒙和他一路搬到了汉堡。
不外让瑞切尔愤慨的是,他们和一家德国人住在同一幢大屋子里。瑞切尔和刘易斯的宗子在德军轰炸中丧生,为此她极为的悔恨德国人。这家德国人是一位父亲和他16岁的女儿,他们在战争中落空了妻子(母亲),对英国人也没有好脸色。不外刘易斯对峙这样放置,大师只好别别扭扭的住在同一个屋檐下。
二战后的德国很是紊乱,占据军与德国人的冲突一向存在,还有些德国人诡计重新集结为纳粹招魂。但是,瑞切尔关心的却是她自己家的题目,丈夫全日忙于工作,无暇顾及自己孩子,她唯一可以交换的人就是阿谁德国鳏夫(实在她并不晓得,丈夫之所以如此无私工作,也是为了忘怀丧子之痛),渐渐的,这两个一路头相互敌视的人相爱了……
《余波》将由詹姆斯·肯特(James Kent)导演,雷德利·斯考特(Ridley Scott)将经过他的Scott-Free制片公司建造本片。
  1. Video
  2. ID                                       : 1
  3. Format                                   : AVC
  4. Format/Info                              : Advanced Video Codec
  5. Format profile                           : [email protected]
  6. Format settings                          : CABAC / 4 Ref Frames
  7. Format settings, CABAC                   : Yes
  8. Format settings, ReFrames                : 4 frames
  9. Codec ID                                 : V_MPEG4/ISO/AVC
  10. Duration                                 : 1 h 48 min
  11. Bit rate mode                            : Variable
  12. Bit rate                                 : 30.0 Mb/s
  13. Maximum bit rate                         : 32.5 Mb/s
  14. Width                                    : 1 920 pixels
  15. Height                                   : 1 080 pixels
  16. Display aspect ratio                     : 16:9
  17. Frame rate mode                          : Constant
  18. Frame rate                               : 23.976 (24000/1001) FPS
  19. Color space                              : YUV
  20. Chroma subsampling                       : 4:2:0
  21. Bit depth                                : 8 bits
  22. Scan type                                : Progressive
  23. Bits/(Pixel*Frame)                       : 0.604
  24. Stream size                              : 22.8 GiB (85%)
  25. Title                                    : The.Aftermath.2019.1080p.BluRay.REMUX.AVC.DTS-HD.MA.5.1-FGT
  26. Language                                 : English
  27. Default                                  : No
  28. Forced                                   : No
  29. Audio #1
  30. ID                                       : 2
  31. Format                                   : DTS XLL
  32. Format/Info                              : Digital Theater Systems
  33. Commercial name                          : DTS-HD Master Audio
  34. Codec ID                                 : A_DTS
  35. Duration                                 : 1 h 48 min
  36. Bit rate mode                            : Variable
  37. Bit rate                                 : 3 313 kb/s
  38. Channel(s)                               : 6 channels
  39. Channel layout                           : C L R Ls Rs LFE
  40. Sampling rate                            : 48.0 kHz
  41. Frame rate                               : 93.750 FPS (512 SPF)
  42. Bit depth                                : 24 bits
  43. Compression mode                         : Lossless
  44. Stream size                              : 2.51 GiB (9%)
  45. Title                                    : The.Aftermath.2019.1080p.BluRay.REMUX.AVC.DTS-HD.MA.5.1-FGT
  46. Language                                 : English
  47. Default                                  : Yes
  48. Forced                                   : No
  49. Audio #2
  50. ID                                       : 3
  51. Format                                   : AC-3
  52. Format/Info                              : Audio Coding 3
  53. Commercial name                          : Dolby Digital
  54. Codec ID                                 : A_AC3
  55. Duration                                 : 1 h 48 min
  56. Bit rate mode                            : Constant
  57. Bit rate                                 : 448 kb/s
  58. Channel(s)                               : 6 channels
  59. Channel layout                           : L R C LFE Ls Rs
  60. Sampling rate                            : 48.0 kHz
  61. Frame rate                               : 31.250 FPS (1536 SPF)
  62. Bit depth                                : 16 bits
  63. Compression mode                         : Lossy
  64. Stream size                              : 348 MiB (1%)
  65. Title                                    : The.Aftermath.2019.1080p.BluRay.REMUX.AVC.DTS-HD.MA.5.1-FGT
  66. Language                                 : English
  67. Service kind                             : Complete Main
  68. Default                                  : No
  69. Forced                                   : No
  70. Audio #3
  71. ID                                       : 4
  72. Format                                   : AC-3
  73. Format/Info                              : Audio Coding 3
  74. Commercial name                          : Dolby Digital
  75. Codec ID                                 : A_AC3
  76. Duration                                 : 1 h 48 min
  77. Bit rate mode                            : Constant
  78. Bit rate                                 : 448 kb/s
  79. Channel(s)                               : 6 channels
  80. Channel layout                           : L R C LFE Ls Rs
  81. Sampling rate                            : 48.0 kHz
  82. Frame rate                               : 31.250 FPS (1536 SPF)
  83. Bit depth                                : 16 bits
  84. Compression mode                         : Lossy
  85. Stream size                              : 348 MiB (1%)
  86. Title                                    : The.Aftermath.2019.1080p.BluRay.REMUX.AVC.DTS-HD.MA.5.1-FGT
  87. Language                                 : Spanish
  88. Service kind                             : Complete Main
  89. Default                                  : No
  90. Forced                                   : No
  91. Audio #4
  92. ID                                       : 5
  93. Format                                   : AC-3
  94. Format/Info                              : Audio Coding 3
  95. Commercial name                          : Dolby Digital
  96. Codec ID                                 : A_AC3
  97. Duration                                 : 1 h 48 min
  98. Bit rate mode                            : Constant
  99. Bit rate                                 : 448 kb/s
  100. Channel(s)                               : 6 channels
  101. Channel layout                           : L R C LFE Ls Rs
  102. Sampling rate                            : 48.0 kHz
  103. Frame rate                               : 31.250 FPS (1536 SPF)
  104. Bit depth                                : 16 bits
  105. Compression mode                         : Lossy
  106. Stream size                              : 348 MiB (1%)
  107. Title                                    : The.Aftermath.2019.1080p.BluRay.REMUX.AVC.DTS-HD.MA.5.1-FGT
  108. Language                                 : French
  109. Service kind                             : Complete Main
  110. Default                                  : No
  111. Forced                                   : No
  112. Audio #5
  113. ID                                       : 6
  114. Format                                   : AC-3
  115. Format/Info                              : Audio Coding 3
  116. Commercial name                          : Dolby Digital
  117. Codec ID                                 : A_AC3
  118. Duration                                 : 1 h 48 min
  119. Bit rate mode                            : Constant
  120. Bit rate                                 : 448 kb/s
  121. Channel(s)                               : 6 channels
  122. Channel layout                           : L R C LFE Ls Rs
  123. Sampling rate                            : 48.0 kHz
  124. Frame rate                               : 31.250 FPS (1536 SPF)
  125. Bit depth                                : 16 bits
  126. Compression mode                         : Lossy
  127. Stream size                              : 348 MiB (1%)
  128. Title                                    : The.Aftermath.2019.1080p.BluRay.REMUX.AVC.DTS-HD.MA.5.1-FGT
  129. Language                                 : Portuguese
  130. Service kind                             : Complete Main
  131. Default                                  : No
  132. Forced                                   : No
  133. Audio #6
  134. ID                                       : 7
  135. Format                                   : AC-3
  136. Format/Info                              : Audio Coding 3
  137. Commercial name                          : Dolby Digital
  138. Codec ID                                 : A_AC3
  139. Duration                                 : 1 h 48 min
  140. Bit rate mode                            : Constant
  141. Bit rate                                 : 224 kb/s
  142. Channel(s)                               : 2 channels
  143. Channel layout                           : L R
  144. Sampling rate                            : 48.0 kHz
  145. Frame rate                               : 31.250 FPS (1536 SPF)
  146. Bit depth                                : 16 bits
  147. Compression mode                         : Lossy
  148. Stream size                              : 174 MiB (1%)
  149. Title                                    : The.Aftermath.2019.1080p.BluRay.REMUX.AVC.DTS-HD.MA.5.1-FGT
  150. Language                                 : English
  151. Service kind                             : Complete Main
  152. Default                                  : No
  153. Forced                                   : No
  154. Text #1
  155. ID                                       : 8
  156. Format                                   : UTF-8
  157. Codec ID                                 : S_TEXT/UTF8
  158. Codec ID/Info                            : UTF-8 Plain Text
  159. Duration                                 : 1 h 18 min
  160. Bit rate                                 : 2 b/s
  161. Count of elements                        : 61
  162. Stream size                              : 1.30 KiB (0%)
  163. Title                                    : English-FORCED-SRT
  164. Language                                 : English
  165. Default                                  : Yes
  166. Forced                                   : Yes
  167. Text #2
  168. ID                                       : 9
  169. Format                                   : UTF-8
  170. Codec ID                                 : S_TEXT/UTF8
  171. Codec ID/Info                            : UTF-8 Plain Text
  172. Duration                                 : 1 h 39 min
  173. Bit rate                                 : 32 b/s
  174. Count of elements                        : 962
  175. Stream size                              : 23.7 KiB (0%)
  176. Title                                    : English-SRT
  177. Language                                 : English
  178. Default                                  : No
  179. Forced                                   : No
  180. Text #3
  181. ID                                       : 10
  182. Format                                   : PGS
  183. Muxing mode                              : zlib
  184. Codec ID                                 : S_HDMV/PGS
  185. Codec ID/Info                            : Picture based subtitle format used on BDs/HD-DVDs
  186. Duration                                 : 1 h 48 min
  187. Bit rate                                 : 21.9 kb/s
  188. Count of elements                        : 2254
  189. Stream size                              : 17.0 MiB (0%)
  190. Title                                    : English-PGS
  191. Language                                 : English
  192. Default                                  : No
  193. Forced                                   : No
  194. Text #4
  195. ID                                       : 11
  196. Format                                   : PGS
  197. Muxing mode                              : zlib
  198. Codec ID                                 : S_HDMV/PGS
  199. Codec ID/Info                            : Picture based subtitle format used on BDs/HD-DVDs
  200. Duration                                 : 1 h 47 min
  201. Bit rate                                 : 17.1 kb/s
  202. Count of elements                        : 1600
  203. Stream size                              : 13.2 MiB (0%)
  204. Title                                    : Spanish-PGS
  205. Language                                 : Spanish
  206. Default                                  : No
  207. Forced                                   : No
  208. Text #5
  209. ID                                       : 12
  210. Format                                   : PGS
  211. Muxing mode                              : zlib
  212. Codec ID                                 : S_HDMV/PGS
  213. Codec ID/Info                            : Picture based subtitle format used on BDs/HD-DVDs
  214. Duration                                 : 1 h 35 min
  215. Bit rate                                 : 1 256 b/s
  216. Count of elements                        : 124
  217. Stream size                              : 876 KiB (0%)
  218. Title                                    : Spanish-FORCED-PGS
  219. Language                                 : Spanish
  220. Default                                  : No
  221. Forced                                   : No
  222. Text #6
  223. ID                                       : 13
  224. Format                                   : PGS
  225. Muxing mode                              : zlib
  226. Codec ID                                 : S_HDMV/PGS
  227. Codec ID/Info                            : Picture based subtitle format used on BDs/HD-DVDs
  228. Duration                                 : 1 h 47 min
  229. Bit rate                                 : 18.5 kb/s
  230. Count of elements                        : 1664
  231. Stream size                              : 14.2 MiB (0%)
  232. Title                                    : French-PGS
  233. Language                                 : French
  234. Default                                  : No
  235. Forced                                   : No
  236. Text #7
  237. ID                                       : 14
  238. Format                                   : PGS
  239. Muxing mode                              : zlib
  240. Codec ID                                 : S_HDMV/PGS
  241. Codec ID/Info                            : Picture based subtitle format used on BDs/HD-DVDs
  242. Duration                                 : 1 h 45 min
  243. Bit rate                                 : 1 459 b/s
  244. Count of elements                        : 152
  245. Stream size                              : 1.11 MiB (0%)
  246. Title                                    : French-FORCED-PGS
  247. Language                                 : French
  248. Default                                  : No
  249. Forced                                   : No
  250. Text #8
  251. ID                                       : 15
  252. Format                                   : PGS
  253. Muxing mode                              : zlib
  254. Codec ID                                 : S_HDMV/PGS
  255. Codec ID/Info                            : Picture based subtitle format used on BDs/HD-DVDs
  256. Duration                                 : 1 h 47 min
  257. Bit rate                                 : 16.6 kb/s
  258. Count of elements                        : 1310
  259. Stream size                              : 12.8 MiB (0%)
  260. Title                                    : Danish-PGS
  261. Language                                 : Danish
  262. Default                                  : No
  263. Forced                                   : No
  264. Text #9
  265. ID                                       : 16
  266. Format                                   : PGS
  267. Muxing mode                              : zlib
  268. Codec ID                                 : S_HDMV/PGS
  269. Codec ID/Info                            : Picture based subtitle format used on BDs/HD-DVDs
  270. Duration                                 : 1 h 43 min
  271. Bit rate                                 : 17.4 kb/s
  272. Count of elements                        : 1640
  273. Stream size                              : 12.9 MiB (0%)
  274. Title                                    : Finnish-PGS
  275. Language                                 : Finnish
  276. Default                                  : No
  277. Forced                                   : No
  278. Text #10
  279. ID                                       : 17
  280. Format                                   : PGS
  281. Muxing mode                              : zlib
  282. Codec ID                                 : S_HDMV/PGS
  283. Codec ID/Info                            : Picture based subtitle format used on BDs/HD-DVDs
  284. Duration                                 : 1 h 47 min
  285. Bit rate                                 : 17.1 kb/s
  286. Count of elements                        : 1644
  287. Stream size                              : 13.1 MiB (0%)
  288. Title                                    : Norwegian-PGS
  289. Language                                 : Norwegian
  290. Default                                  : No
  291. Forced                                   : No
  292. Text #11
  293. ID                                       : 18
  294. Format                                   : PGS
  295. Muxing mode                              : zlib
  296. Codec ID                                 : S_HDMV/PGS
  297. Codec ID/Info                            : Picture based subtitle format used on BDs/HD-DVDs
  298. Duration                                 : 1 h 47 min
  299. Bit rate                                 : 18.2 kb/s
  300. Count of elements                        : 1668
  301. Stream size                              : 14.0 MiB (0%)
  302. Title                                    : Portuguese-PGS
  303. Language                                 : Portuguese
  304. Default                                  : No
  305. Forced                                   : No
  306. Text #12
  307. ID                                       : 19
  308. Format                                   : PGS
  309. Muxing mode                              : zlib
  310. Codec ID                                 : S_HDMV/PGS
  311. Codec ID/Info                            : Picture based subtitle format used on BDs/HD-DVDs
  312. Duration                                 : 1 h 35 min
  313. Bit rate                                 : 1 444 b/s
  314. Count of elements                        : 146
  315. Stream size                              : 1 007 KiB (0%)
  316. Title                                    : Portuguese-FORCED-PGS
  317. Language                                 : Portuguese
  318. Default                                  : No
  319. Forced                                   : No
  320. Text #13
  321. ID                                       : 20
  322. Format                                   : PGS
  323. Muxing mode                              : zlib
  324. Codec ID                                 : S_HDMV/PGS
  325. Codec ID/Info                            : Picture based subtitle format used on BDs/HD-DVDs
  326. Duration                                 : 1 h 47 min
  327. Bit rate                                 : 17.8 kb/s
  328. Count of elements                        : 1648
  329. Stream size                              : 13.7 MiB (0%)
  330. Title                                    : Swedish-PGS
  331. Language                                 : Swedish
  332. Default                                  : No
  333. Forced                                   : No
  334. Text #14
  335. ID                                       : 21
  336. Format                                   : PGS
  337. Muxing mode                              : zlib
  338. Codec ID                                 : S_HDMV/PGS
  339. Codec ID/Info                            : Picture based subtitle format used on BDs/HD-DVDs
  340. Duration                                 : 1 h 48 min
  341. Bit rate                                 : 46.2 kb/s
  342. Count of elements                        : 3150
  343. Stream size                              : 35.9 MiB (0%)
  344. Title                                    : English-COMMENTARY-PGS
  345. Language                                 : English
  346. Default                                  : No
  347. Forced                                   : No
  348. Text #15
  349. ID                                       : 22
  350. Format                                   : PGS
  351. Muxing mode                              : zlib
  352. Codec ID                                 : S_HDMV/PGS
  353. Codec ID/Info                            : Picture based subtitle format used on BDs/HD-DVDs
  354. Duration                                 : 1 h 48 min
  355. Bit rate                                 : 42.4 kb/s
  356. Count of elements                        : 2964
  357. Stream size                              : 32.8 MiB (0%)
  358. Title                                    : Spanish-COMMENTARY-PGS
  359. Language                                 : Spanish
  360. Default                                  : No
  361. Forced                                   : No
  362. Text #16
  363. ID                                       : 23
  364. Format                                   : PGS
  365. Muxing mode                              : zlib
  366. Codec ID                                 : S_HDMV/PGS
  367. Codec ID/Info                            : Picture based subtitle format used on BDs/HD-DVDs
  368. Duration                                 : 1 h 48 min
  369. Bit rate                                 : 43.1 kb/s
  370. Count of elements                        : 2964
  371. Stream size                              : 33.3 MiB (0%)
  372. Title                                    : French-COMMENTARY-PGS
  373. Language                                 : French
  374. Default                                  : No
  375. Forced                                   : No
  376. Text #17
  377. ID                                       : 24
  378. Format                                   : PGS
  379. Muxing mode                              : zlib
  380. Codec ID                                 : S_HDMV/PGS
  381. Codec ID/Info                            : Picture based subtitle format used on BDs/HD-DVDs
  382. Duration                                 : 1 h 48 min
  383. Bit rate                                 : 40.3 kb/s
  384. Count of elements                        : 2960
  385. Stream size                              : 31.2 MiB (0%)
  386. Title                                    : Danihs-COMMENTARY-PGS
  387. Language                                 : Danish
  388. Default                                  : No
  389. Forced                                   : No
  390. Text #18
  391. ID                                       : 25
  392. Format                                   : PGS
  393. Muxing mode                              : zlib
  394. Codec ID                                 : S_HDMV/PGS
  395. Codec ID/Info                            : Picture based subtitle format used on BDs/HD-DVDs
  396. Duration                                 : 1 h 48 min
  397. Bit rate                                 : 40.5 kb/s
  398. Count of elements                        : 2950
  399. Stream size                              : 31.3 MiB (0%)
  400. Title                                    : Finnish-COMMENTARY-PGS
  401. Language                                 : Finnish
  402. Default                                  : No
  403. Forced                                   : No
  404. Text #19
  405. ID                                       : 26
  406. Format                                   : PGS
  407. Muxing mode                              : zlib
  408. Codec ID                                 : S_HDMV/PGS
  409. Codec ID/Info                            : Picture based subtitle format used on BDs/HD-DVDs
  410. Duration                                 : 1 h 48 min
  411. Bit rate                                 : 39.8 kb/s
  412. Count of elements                        : 2960
  413. Stream size                              : 30.8 MiB (0%)
  414. Title                                    : Norwegian-COMMENTARY-PGS
  415. Language                                 : Norwegian
  416. Default                                  : No
  417. Forced                                   : No
  418. Text #20
  419. ID                                       : 27
  420. Format                                   : PGS
  421. Muxing mode                              : zlib
  422. Codec ID                                 : S_HDMV/PGS
  423. Codec ID/Info                            : Picture based subtitle format used on BDs/HD-DVDs
  424. Duration                                 : 1 h 48 min
  425. Bit rate                                 : 40.9 kb/s
  426. Count of elements                        : 2780
  427. Stream size                              : 31.6 MiB (0%)
  428. Title                                    : Swedish-COMMENTARY-PGS
  429. Language                                 : Swedish
  430. Default                                  : No
  431. Forced                                   : No
  432. Menu
  433. 00:00:00.000                             : en:Chapter 01
  434. 00:04:00.198                             : en:Chapter 02
  435. 00:10:37.386                             : en:Chapter 03
  436. 00:14:21.151                             : en:Chapter 04
  437. 00:17:51.779                             : en:Chapter 05
  438. 00:22:40.525                             : en:Chapter 06
  439. 00:27:50.877                             : en:Chapter 07
  440. 00:35:09.524                             : en:Chapter 08
  441. 00:37:11.020                             : en:Chapter 09
  442. 00:41:33.073                             : en:Chapter 10
  443. 00:46:29.077                             : en:Chapter 11
  444. 00:49:59.871                             : en:Chapter 12
  445. 00:56:03.693                             : en:Chapter 13
  446. 01:02:05.680                             : en:Chapter 14
  447. 01:04:49.635                             : en:Chapter 15
  448. 01:09:01.262                             : en:Chapter 16
  449. 01:15:59.304                             : en:Chapter 17
  450. 01:19:48.033                             : en:Chapter 18
  451. 01:22:09.049                             : en:Chapter 19
  452. 01:27:01.507                             : en:Chapter 20
  453. 01:29:36.788                             : en:Chapter 21
  454. 01:33:39.614                             : en:Chapter 22
  455. 01:39:16.033                             : en:Chapter 23
  456. 01:42:47.870                             : en:Chapter 24
复制代码






                                       
                                       

                                       
                                       
                                       




回复

使用道具 举报

懒得打字嘛,点击右侧快捷回复 【右侧内容,后台自定义】
您需要登录后才可以回帖 登录 | 立即加入

本版积分规则

Archiver|小黑屋| 蓝光电影网 |网站地图

Copyright © 2021 Comsenz Inc. Powered by 蓝光电影网

蓝光电影网

本站内容由用户自主分享和转载自互联网,转载目的在于传递更多信息,并不代表本网赞同其观点和对其真实性负责。

如有侵权、违反国家法律政策行为,请联系我们,我们会第一时间及时清除和处理!

举报反馈邮箱:[email protected]

快速回复 返回顶部 返回列表