找回密码

蓝光电影网

查看: 12|回复: 0

[剧情] 上帝的女儿/神迹奇案 Agnes.of.God.1985.1080p.BluRay.REMUX.AVC.LPCM.2.0-FGT 18.55GB

[复制链接]
蓝光币
515
发表于 2019-6-26 22:11:03 | 显示全部楼层 |阅读模式


◎译  名 天主的女儿 / 神迹奇案
◎片  名 Agnes of God
◎年  代 1985
◎产  地 美国
◎类  别 剧情 / 悬疑 / 惊悚
◎语  言 英语 / 法语
◎上映日期 1985-09-13
◎IMDb评分  6.6/10 from 6286 users
◎IMDb链接  http://www.imdb.com/title/tt0088683
◎豆瓣评分 7.2/10 from 61 users
◎豆瓣链接 https://movie.douban.com/subject/1296319/
◎片  长 98 分钟
◎导  演 Norman Jewison
◎编  剧 John Pielmeier
◎主  演 Jane Fonda
      Anne Bancroft
      Meg Tilly

◎标  签 美国电影 | 信仰 | 美国 | 1985 | 剧情 | 1980s | 宗教 | Anne_Bancroft
◎简  介  
  暂无相关剧情先容
◎获奖情况  
  第58届奥斯卡金像奖(1986)
  最好女配角(提名) 安妮·班克罗夫特
  最好女配角(提名) 梅格·提利
  最好原创配乐(提名) 乔治·德勒吕

  1. Video
  2. ID                                       : 1
  3. Format                                   : AVC
  4. Format/Info                              : Advanced Video Codec
  5. Format profile                           : [email protected]
  6. Format settings                          : CABAC / 4 Ref Frames
  7. Format settings, CABAC                   : Yes
  8. Format settings, ReFrames                : 4 frames
  9. Codec ID                                 : V_MPEG4/ISO/AVC
  10. Duration                                 : 1 h 38 min
  11. Bit rate mode                            : Constant
  12. Bit rate                                 : 25.0 Mb/s
  13. Width                                    : 1 920 pixels
  14. Height                                   : 1 080 pixels
  15. Display aspect ratio                     : 16:9
  16. Frame rate mode                          : Constant
  17. Frame rate                               : 23.976 (24000/1001) FPS
  18. Standard                                 : NTSC
  19. Color space                              : YUV
  20. Chroma subsampling                       : 4:2:0
  21. Bit depth                                : 8 bits
  22. Scan type                                : Progressive
  23. Bits/(Pixel*Frame)                       : 0.503
  24. Stream size                              : 17.0 GiB (91%)
  25. Title                                    : Agnes.of.God.1985.1080p.BluRay.REMUX.AVC.LPCM.2.0-FGT
  26. Language                                 : English
  27. Default                                  : No
  28. Forced                                   : No
  29. Color range                              : Limited
  30. Color primaries                          : BT.709
  31. Transfer characteristics                 : BT.709
  32. Matrix coefficients                      : BT.709
  33. Audio
  34. ID                                       : 2
  35. Format                                   : PCM
  36. Format settings                          : Little / Signed
  37. Codec ID                                 : A_PCM/INT/LIT
  38. Duration                                 : 1 h 38 min
  39. Bit rate mode                            : Constant
  40. Bit rate                                 : 2 304 kb/s
  41. Channel(s)                               : 2 channels
  42. Sampling rate                            : 48.0 kHz
  43. Frame rate                               : 30.000 FPS (1600 SPF)
  44. Bit depth                                : 24 bits
  45. Stream size                              : 1.59 GiB (9%)
  46. Title                                    : Agnes.of.God.1985.1080p.BluRay.REMUX.AVC.LPCM.2.0-FGT
  47. Language                                 : English
  48. Default                                  : Yes
  49. Forced                                   : No
  50. Menu
  51. 00:00:00.000                             : en:Chapter 01
  52. 00:03:04.601                             : en:Chapter 02
  53. 00:13:46.867                             : en:Chapter 03
  54. 00:24:00.856                             : en:Chapter 04
  55. 00:30:19.192                             : en:Chapter 05
  56. 00:35:09.398                             : en:Chapter 06
  57. 00:43:22.349                             : en:Chapter 07
  58. 00:50:14.219                             : en:Chapter 08
  59. 01:03:02.403                             : en:Chapter 09
  60. 01:14:08.318                             : en:Chapter 10
  61. 01:24:30.899                             : en:Chapter 11
  62. 01:35:48.367                             : en:Chapter 12
复制代码






                                       
                                       

                                       
                                       
                                       




回复

使用道具 举报

懒得打字嘛,点击右侧快捷回复 【右侧内容,后台自定义】
您需要登录后才可以回帖 登录 | 立即加入

本版积分规则

Archiver|小黑屋| 蓝光电影网 |网站地图

Copyright © 2021 Comsenz Inc. Powered by 蓝光电影网

蓝光电影网

本站内容由用户自主分享和转载自互联网,转载目的在于传递更多信息,并不代表本网赞同其观点和对其真实性负责。

如有侵权、违反国家法律政策行为,请联系我们,我们会第一时间及时清除和处理!

举报反馈邮箱:[email protected]

快速回复 返回顶部 返回列表