找回密码

蓝光电影网

查看: 15|回复: 0

[喜剧] 两个四月/四月 Aprile.1998.1080p.BluRay.x264-USURY 11.15GB

[复制链接]
蓝光币
515
发表于 2020-11-23 08:35:35 | 显示全部楼层 |阅读模式


◎译  名 两个四月/四月
◎片  名 Aprile
◎年  代 1998
◎产  地 法国,意大利
◎类  别 笑剧
◎语  言 意大利语
◎上映日期 1998-05-20
◎IMDb评分  7/10 from 2865 users
◎IMDb链接  https://www.imdb.com/title/tt0118635/
◎豆瓣评分 7.1/10 from 175 users
◎豆瓣链接 https://movie.douban.com/subject/1306542/
◎片  长 78分钟
◎导  演 南尼·莫莱蒂 Nanni Moretti
◎编  剧 南尼·莫莱蒂 Nanni Moretti
◎主  演 南尼·莫莱蒂 Nanni Moretti
       西尔维奥·奥兰多 Silvio Orlando
       安杰洛·巴尔巴加洛 Angelo Barbagallo
       丹尼埃莱·卢凯蒂 Daniele Luchetti
       Quentin de Fouchécour
       安德里亚·莫莱奥尼 Andrea Molaioli
       马可·梅塞里 Marco Messeri
◎标  签 意大利 | 意大利电影 | NanniMoretti | Nanni_Moretti | 1998 | 南尼·莫莱蒂 | 笑剧 | 南尼·莫瑞提
◎简  介


  故事发生在1995年的意大利,南尼(南尼·莫莱蒂 Nanni Moretti 饰)的妻子告诉他,自己的腹中有了他们两人恋爱的结晶。这突如其来的命运的奉送打了南尼一个措手不及,一时之间,发急、兴奋、思疑、不安的动机将他层层包围。终极,南尼调剂好了自己的心态,起头动手预备驱逐这个小生命的到来,他立誓要给这个孩子缔造一个天下上最完善的胎教场所。
  
  冗长的十月曩昔,新生命呱呱坠地,虽然这个场景在南尼的脑海里演练了无数遍,但当它真的成为现实时,这现实和南尼的空想还是有着很大的收支的,很快南尼就起头大白,空想成为一个父亲,和真正成为一个父亲之间,有着多大的不同。
◎获奖情况
  第51届戛纳电影节 ?(1998)
  主比赛单元金棕榈奖(提名) 南尼·莫莱蒂
  1. Video
  2. ID                                       : 1
  3. Format                                   : AVC
  4. Format/Info                              : Advanced Video Codec
  5. Format profile                           : [email protected]
  6. Format settings                          : CABAC / 4 Ref Frames
  7. Format settings, CABAC                   : Yes
  8. Format settings, Reference frames        : 4 frames
  9. Codec ID                                 : V_MPEG4/ISO/AVC
  10. Duration                                 : 1 h 18 min
  11. Bit rate                                 : 19.5 Mb/s
  12. Width                                    : 1 790 pixels
  13. Height                                   : 1 080 pixels
  14. Display aspect ratio                     : 5:3
  15. Frame rate mode                          : Constant
  16. Frame rate                               : 24.000 FPS
  17. Color space                              : YUV
  18. Chroma subsampling                       : 4:2:0
  19. Bit depth                                : 8 bits
  20. Scan type                                : Progressive
  21. Bits/(Pixel*Frame)                       : 0.420
  22. Stream size                              : 10.6 GiB (95%)
  23. Writing library                          : x264 core 161 r3027 4121277
  24. Encoding settings                        : cabac=1 / ref=4 / deblock=1:-3:-3 / analyse=0x3:0x133 / me=umh / subme=10 / psy=1 / psy_rd=1.00:0.15 / mixed_ref=1 / me_range=24 / chroma_me=1 / trellis=2 / 8x8dct=1 / cqm=0 / deadzone=21,11 / fast_pskip=1 / chroma_qp_offset=-3 / threads=18 / lookahead_threads=3 / sliced_threads=0 / nr=0 / decimate=1 / interlaced=0 / bluray_compat=0 / constrained_intra=0 / bframes=8 / b_pyramid=2 / b_adapt=2 / b_bias=0 / direct=3 / weightb=1 / open_gop=0 / weightp=2 / keyint=250 / keyint_min=24 / scenecut=40 / intra_refresh=0 / rc_lookahead=60 / rc=crf / mbtree=1 / crf=18.0 / qcomp=0.60 / qpmin=0 / qpmax=69 / qpstep=4 / ip_ratio=1.40 / aq=3:0.50
  25. Language                                 : English
  26. Default                                  : Yes
  27. Forced                                   : No

  28. Audio
  29. ID                                       : 2
  30. Format                                   : FLAC
  31. Format/Info                              : Free Lossless Audio Codec
  32. Codec ID                                 : A_FLAC
  33. Duration                                 : 1 h 18 min
  34. Bit rate mode                            : Variable
  35. Bit rate                                 : 905 kb/s
  36. Channel(s)                               : 2 channels
  37. Channel layout                           : L R
  38. Sampling rate                            : 48.0 kHz
  39. Frame rate                               : 11.719 FPS (4096 SPF)
  40. Bit depth                                : 24 bits
  41. Detected bit depth                       : 20 bits
  42. Compression mode                         : Lossless
  43. Stream size                              : 505 MiB (4%)
  44. Writing library                          : libFLAC 1.2.1 (UTC 2007-09-17)
  45. Language                                 : Italian
  46. Default                                  : Yes
  47. Forced                                   : No

  48. Text #1
  49. ID                                       : 3
  50. Format                                   : UTF-8
  51. Codec ID                                 : S_TEXT/UTF8
  52. Codec ID/Info                            : UTF-8 Plain Text
  53. Duration                                 : 1 h 16 min
  54. Bit rate                                 : 60 b/s
  55. Count of elements                        : 1071
  56. Stream size                              : 33.7 KiB (0%)
  57. Title                                    : English
  58. Language                                 : English
  59. Default                                  : Yes
  60. Forced                                   : Yes

  61. Text #2
  62. ID                                       : 4
  63. Format                                   : PGS
  64. Muxing mode                              : zlib
  65. Codec ID                                 : S_HDMV/PGS
  66. Codec ID/Info                            : Picture based subtitle format used on BDs/HD-DVDs
  67. Duration                                 : 1 h 16 min
  68. Bit rate                                 : 12.9 kb/s
  69. Count of elements                        : 2162
  70. Stream size                              : 7.06 MiB (0%)
  71. Title                                    : English
  72. Language                                 : English
  73. Default                                  : No
  74. Forced                                   : No

  75. Text #3
  76. ID                                       : 5
  77. Format                                   : UTF-8
  78. Codec ID                                 : S_TEXT/UTF8
  79. Codec ID/Info                            : UTF-8 Plain Text
  80. Duration                                 : 1 h 16 min
  81. Bit rate                                 : 73 b/s
  82. Count of elements                        : 1084
  83. Stream size                              : 40.9 KiB (0%)
  84. Title                                    : French
  85. Language                                 : French
  86. Default                                  : No
  87. Forced                                   : No

  88. Text #4
  89. ID                                       : 6
  90. Format                                   : PGS
  91. Muxing mode                              : zlib
  92. Codec ID                                 : S_HDMV/PGS
  93. Codec ID/Info                            : Picture based subtitle format used on BDs/HD-DVDs
  94. Duration                                 : 1 h 16 min
  95. Bit rate                                 : 14.4 kb/s
  96. Count of elements                        : 2168
  97. Stream size                              : 7.87 MiB (0%)
  98. Title                                    : French
  99. Language                                 : French
  100. Default                                  : No
  101. Forced                                   : No

  102. Text #5
  103. ID                                       : 7
  104. Format                                   : UTF-8
  105. Codec ID                                 : S_TEXT/UTF8
  106. Codec ID/Info                            : UTF-8 Plain Text
  107. Duration                                 : 1 h 13 min
  108. Bit rate                                 : 76 b/s
  109. Count of elements                        : 959
  110. Stream size                              : 41.3 KiB (0%)
  111. Title                                    : German
  112. Language                                 : German
  113. Default                                  : No
  114. Forced                                   : No

  115. Text #6
  116. ID                                       : 8
  117. Format                                   : PGS
  118. Muxing mode                              : zlib
  119. Codec ID                                 : S_HDMV/PGS
  120. Codec ID/Info                            : Picture based subtitle format used on BDs/HD-DVDs
  121. Duration                                 : 1 h 13 min
  122. Bit rate                                 : 15.0 kb/s
  123. Count of elements                        : 1918
  124. Stream size                              : 7.91 MiB (0%)
  125. Title                                    : German
  126. Language                                 : German
  127. Default                                  : No
  128. Forced                                   : No

  129. Menu
  130. 00:00:00.000                             : en:00:00:00.000
  131. 00:04:28.000                             : en:00:04:28.000
  132. 00:09:59.458                             : en:00:09:59.458
  133. 00:18:09.417                             : en:00:18:09.417
  134. 00:25:45.958                             : en:00:25:45.958
  135. 00:31:31.000                             : en:00:31:31.000
  136. 00:38:38.292                             : en:00:38:38.292
  137. 00:43:21.625                             : en:00:43:21.625
  138. 00:47:51.250                             : en:00:47:51.250
  139. 00:53:30.833                             : en:00:53:30.833
  140. 00:59:19.125                             : en:00:59:19.125
  141. 01:08:16.208                             : en:01:08:16.208
复制代码




                                       
                                       

                                       
                                       
                                       




回复

使用道具 举报

懒得打字嘛,点击右侧快捷回复 【右侧内容,后台自定义】
您需要登录后才可以回帖 登录 | 立即加入

本版积分规则

Archiver|小黑屋| 蓝光电影网 |网站地图

Copyright © 2021 Comsenz Inc. Powered by 蓝光电影网

蓝光电影网

本站内容由用户自主分享和转载自互联网,转载目的在于传递更多信息,并不代表本网赞同其观点和对其真实性负责。

如有侵权、违反国家法律政策行为,请联系我们,我们会第一时间及时清除和处理!

举报反馈邮箱:[email protected]

快速回复 返回顶部 返回列表