找回密码

蓝光电影网

查看: 13|回复: 0

[动作] 攻壳机动队:崛起3/攻壳机动队:崛起3-灵魂之泪 Ghost.in.the.Shell.Arise.Border.3.Ghost.Tears.2014.1080p.BluRay.x264-MOOVEE 4.37GB

[复制链接]
蓝光币
682
发表于 2019-8-23 08:20:48 | 显示全部楼层 |阅读模式


◎译  名 攻壳灵活队:突起3 / 攻壳灵活队:突起3-灵魂之泪
◎片  名 攻殻機動隊ARISE border:3 Ghost Tears
◎年  代 2014
◎产  地 日本
◎类  别 行动 / 科幻 / 动画 / 悬疑 / 犯罪
◎语  言 日语
◎上映日期 2014-06-28(日本)
◎IMDb评分  7.2/10 from 2154 users
◎IMDb链接  http://www.imdb.com/title/tt3579524
◎豆瓣评分 6.6/10 from 1661 users
◎豆瓣链接 https://movie.douban.com/subject/25783409/
◎片  长 58分钟
◎导  演 黄瀬和哉
◎编  剧 冲方丁 Tow Ubukata
◎主  演 坂本真绫 Maaya Sakamoto
       塾一久
       松田健一郎 Kenichirou Matsuda
       新垣樽助 Tarusuke Shingaki
       中国卓郎 Takuro Nakakuni
       上田燿司
       中井和哉 Kazuya Nakai
       泽城美雪 Miyuki Sawashiro

◎标  签 动画 | 日本 | 攻壳灵活队 | 科幻 | 日本动画 | 2014 | 戏院版 | Production.I.G
◎简  介  
  正享用长久假期的公安九课少校草薙素子(坂本真绫 配音)忽然接到巴特(松田健一郎 配音)的报告,西之内某处大厦蒙受可骇份子攻击,政府高官和贸易巨擎被人杀戮。在草薙的批示下,九课的石川、波玛、帕兹、巴特等人通力合作,将可骇份子完全礼服,但草薙在行动中意外遭到奥秘病毒传染。在西之内可骇攻击的同时,近郊的水坝发生爆炸案。新滨县刑警陀古萨(新垣樽助 配音)传唤水坝治理企业负责人沙特博士,对方是来自饱经烽火的卡森共和国的卡尔迪斯人。受警方高层施压,陀古萨没有获得任何有用信息。另一方面,草薙一方得知可骇份子的实在身份,正是卡尔迪斯的游击队构造。两起案件意外联系在一路,其背后隐藏怎样的真相?
  本片按照士郎正宗的原作改编,为攻壳灵活队前传“ARISE”的第三部。
  1. Video
  2. ID                                       : 1
  3. Format                                   : AVC
  4. Format/Info                              : Advanced Video Codec
  5. Format profile                           : [email protected]
  6. Format settings, CABAC                   : Yes
  7. Format settings, ReFrames                : 4 frames
  8. Codec ID                                 : V_MPEG4/ISO/AVC
  9. Duration                                 : 58mn 10s
  10. Bit rate                                 : 9 858 Kbps
  11. Width                                    : 1 920 pixels
  12. Height                                   : 1 080 pixels
  13. Display aspect ratio                     : 16:9
  14. Frame rate mode                          : Constant
  15. Frame rate                               : 23.976 (24000/1001) fps
  16. Color space                              : YUV
  17. Chroma subsampling                       : 4:2:0
  18. Bit depth                                : 8 bits
  19. Scan type                                : Progressive
  20. Bits/(Pixel*Frame)                       : 0.198
  21. Stream size                              : 4.01 GiB (92%)
  22. Writing library                          : x264 core 150 r2833kMod df79067
  23. Encoding settings                        : cabac=1 / ref=4 / deblock=1:0:0 / analyse=0x3:0x133 / me=umh / subme=8 / psy=1 / fade_compensate=0.00 / psy_rd=1.00:0.00 / mixed_ref=1 / me_range=16 / chroma_me=1 / trellis=1 / 8x8dct=1 / cqm=0 / deadzone=21,11 / fast_pskip=0 / chroma_qp_offset=-2 / threads=18 / lookahead_threads=3 / sliced_threads=0 / nr=0 / decimate=1 / interlaced=0 / bluray_compat=0 / constrained_intra=0 / bframes=3 / b_pyramid=2 / b_adapt=1 / b_bias=0 / direct=1 / weightb=1 / open_gop=0 / weightp=2 / keyint=250 / keyint_min=23 / scenecut=40 / intra_refresh=0 / rc_lookahead=40 / rc=2pass / mbtree=1 / bitrate=9858 / ratetol=1.0 / qcomp=0.60 / qpmin=0 / qpmax=69 / qpstep=4 / cplxblur=20.0 / qblur=0.5 / ip_ratio=1.40 / aq=1:1.00
  24. Language                                 : English
  25. Default                                  : Yes
  26. Forced                                   : No

  27. Audio #1
  28. ID                                       : 2
  29. Format                                   : AC-3
  30. Format/Info                              : Audio Coding 3
  31. Mode extension                           : CM (complete main)
  32. Format settings, Endianness              : Big
  33. Codec ID                                 : A_AC3
  34. Duration                                 : 58mn 10s
  35. Bit rate mode                            : Constant
  36. Bit rate                                 : 448 Kbps
  37. Channel(s)                               : 6 channels
  38. Channel positions                        : Front: L C R, Side: L R, LFE
  39. Sampling rate                            : 48.0 KHz
  40. Frame rate                               : 31.250 fps (1536 spf)
  41. Compression mode                         : Lossy
  42. Stream size                              : 186 MiB (4%)
  43. Title                                    : Japanese
  44. Language                                 : Japanese
  45. Default                                  : Yes
  46. Forced                                   : No

  47. Audio #2
  48. ID                                       : 3
  49. Format                                   : AC-3
  50. Format/Info                              : Audio Coding 3
  51. Mode extension                           : CM (complete main)
  52. Format settings, Endianness              : Big
  53. Codec ID                                 : A_AC3
  54. Duration                                 : 58mn 10s
  55. Bit rate mode                            : Constant
  56. Bit rate                                 : 448 Kbps
  57. Channel(s)                               : 6 channels
  58. Channel positions                        : Front: L C R, Side: L R, LFE
  59. Sampling rate                            : 48.0 KHz
  60. Frame rate                               : 31.250 fps (1536 spf)
  61. Compression mode                         : Lossy
  62. Stream size                              : 186 MiB (4%)
  63. Title                                    : English
  64. Language                                 : English
  65. Default                                  : No
  66. Forced                                   : No

  67. Text
  68. ID                                       : 4
  69. Format                                   : UTF-8
  70. Codec ID                                 : S_TEXT/UTF8
  71. Codec ID/Info                            : UTF-8 Plain Text
  72. Duration                                 : 52mn 5s
  73. Bit rate                                 : 70 bps
  74. Count of elements                        : 675
  75. Stream size                              : 26.9 KiB (0%)
  76. Title                                    : English
  77. Language                                 : English
  78. Default                                  : Yes
  79. Forced                                   : No

  80. Menu
  81. 00:00:00.000                             : en:00:00:00.000
  82. 00:03:49.771                             : en:00:03:49.771
  83. 00:04:51.291                             : en:00:04:51.291
  84. 00:19:57.363                             : en:00:19:57.363
  85. 00:39:52.098                             : en:00:39:52.098
  86. 00:53:49.726                             : en:00:53:49.726
  87. 00:57:46.463                             : en:00:57:46.463
复制代码




                                       
                                       

                                       
                                       
                                       




回复

使用道具 举报

懒得打字嘛,点击右侧快捷回复 【右侧内容,后台自定义】
您需要登录后才可以回帖 登录 | 立即加入

本版积分规则

Archiver|小黑屋| 蓝光电影网 |网站地图

Copyright © 2021 Comsenz Inc. Powered by 蓝光电影网

蓝光电影网

本站内容由用户自主分享和转载自互联网,转载目的在于传递更多信息,并不代表本网赞同其观点和对其真实性负责。

如有侵权、违反国家法律政策行为,请联系我们,我们会第一时间及时清除和处理!

举报反馈邮箱:[email protected]

快速回复 返回顶部 返回列表