找回密码

蓝光电影网

查看: 29|回复: 0

[奇幻] 阿拉丁历险记 Adventures.of.Aladdin.2019.1080p.BluRay.REMUX.AVC.DTS-HD.MA.5.1-FGT 16.44GB

[复制链接]
蓝光币
515
发表于 2019-7-8 17:30:53 | 显示全部楼层 |阅读模式


◎译  名 阿拉丁历险记
◎片  名 Adventures of Aladdin
◎年  代 2019
◎产  地 美国
◎类  别 奇异 / 冒险
◎语  言 英语
◎上映日期 2019-05-10(美国)
◎IMDb评分  1.6/10 from 657 users
◎IMDb链接  http://www.imdb.com/title/tt9783778
◎豆瓣评分 2.6/10 from 563 users
◎豆瓣链接 https://movie.douban.com/subject/33406664/
◎片  长 87分钟
◎导  演 Glenn Campbell
◎编  剧 Glenn Campbell / Tammy Klein
◎主  演 亚当·霍利克 Adam Hollick
      Daniel O'Reilly
      Lucia Dimitra Xypteras
      Monroe Robertson
      Naya Abou Mousa
      Havon Baraka
      Manny Zaldivar
      Lord KraVen
      Joe Roche
      Sharieff Walters
      Americus Abesamis
      Mark Sawicki
      Mark Pirro
      Mike Gaglio
      Tammy Klein

◎标  签 似乎看错电影了 | 烂片 | 本来国外也爱玩蹭热度 | 碰瓷儿电影 | 无聊本国片 | 巨烂片 | 2019 | 美国
◎简  介  
  Aladdin is recruited to steal a magic lamp. But when he uses its powers to help him win the heart of the newly appointed Sultana, it opens up a whole new world of excitement and danger.
  1. Video
  2. ID                                       : 1
  3. Format                                   : AVC
  4. Format/Info                              : Advanced Video Codec
  5. Format profile                           : [email protected]
  6. Format settings                          : CABAC / 4 Ref Frames
  7. Format settings, CABAC                   : Yes
  8. Format settings, ReFrames                : 4 frames
  9. Codec ID                                 : V_MPEG4/ISO/AVC
  10. Duration                                 : 1 h 27 min
  11. Bit rate mode                            : Variable
  12. Bit rate                                 : 25.0 Mb/s
  13. Maximum bit rate                         : 35.0 Mb/s
  14. Width                                    : 1 920 pixels
  15. Height                                   : 1 080 pixels
  16. Display aspect ratio                     : 16:9
  17. Frame rate mode                          : Constant
  18. Frame rate                               : 23.976 (24000/1001) FPS
  19. Standard                                 : Component
  20. Color space                              : YUV
  21. Chroma subsampling                       : 4:2:0
  22. Bit depth                                : 8 bits
  23. Scan type                                : Progressive
  24. Bits/(Pixel*Frame)                       : 0.503
  25. Stream size                              : 15.2 GiB (93%)
  26. Title                                    : Adventures.of.Aladdin.2019.1080p.BluRay.REMUX.AVC.DTS-HD.MA.5.1-FGT
  27. Writing library                          : x264 core 142
  28. Encoding settings                        : cabac=1 / ref=4 / deblock=1:0:0 / analyse=0x3:0x133 / me=umh / subme=9 / psy=1 / psy_rd=1.00:0.00 / mixed_ref=1 / me_range=16 / chroma_me=1 / trellis=2 / 8x8dct=1 / cqm=2 / deadzone=21,11 / fast_pskip=1 / chroma_qp_offset=-4 / threads=24 / lookahead_threads=2 / sliced_threads=0 / slices=4 / nr=0 / decimate=1 / interlaced=0 / bluray_compat=1 / stitchable=1 / constrained_intra=0 / bframes=3 / b_pyramid=0 / b_adapt=2 / b_bias=0 / direct=3 / weightb=1 / open_gop=1 / weightp=1 / keyint=24 / keyint_min=1 / scenecut=40 / intra_refresh=0 / rc_lookahead=24 / rc=2pass / mbtree=1 / bitrate=25000 / ratetol=1.0 / qcomp=0.60 / qpmin=5 / qpmax=69 / qpstep=4 / cplxblur=20.0 / qblur=0.5 / vbv_maxrate=35000 / vbv_bufsize=30000 / nal_hrd=vbr / filler=0 / ip_ratio=1.40 / aq=1:1.00
  29. Language                                 : English
  30. Default                                  : No
  31. Forced                                   : No
  32. Color range                              : Limited
  33. Color primaries                          : BT.709
  34. Transfer characteristics                 : BT.709
  35. Matrix coefficients                      : BT.709
  36. Audio
  37. ID                                       : 2
  38. Format                                   : DTS XLL
  39. Format/Info                              : Digital Theater Systems
  40. Commercial name                          : DTS-HD Master Audio
  41. Codec ID                                 : A_DTS
  42. Duration                                 : 1 h 27 min
  43. Bit rate mode                            : Variable
  44. Bit rate                                 : 1 946 kb/s
  45. Channel(s)                               : 6 channels
  46. Channel layout                           : C L R Ls Rs LFE
  47. Sampling rate                            : 48.0 kHz
  48. Frame rate                               : 93.750 FPS (512 SPF)
  49. Bit depth                                : 16 bits
  50. Compression mode                         : Lossless
  51. Stream size                              : 1.19 GiB (7%)
  52. Title                                    : Adventures.of.Aladdin.2019.1080p.BluRay.REMUX.AVC.DTS-HD.MA.5.1-FGT
  53. Language                                 : English
  54. Default                                  : Yes
  55. Forced                                   : No
  56. Menu
  57. 00:00:00.000                             : en:Chapter 01
  58. 00:10:59.408                             : en:Chapter 02
  59. 00:21:56.648                             : en:Chapter 03
  60. 00:34:35.948                             : en:Chapter 04
  61. 00:41:07.047                             : en:Chapter 05
  62. 00:48:57.976                             : en:Chapter 06
  63. 00:53:52.145                             : en:Chapter 07
  64. 00:58:59.744                             : en:Chapter 08
  65. 01:07:10.943                             : en:Chapter 09
  66. 01:20:59.938                             : en:Chapter 10
复制代码






                                       
                                       

                                       
                                       
                                       




回复

使用道具 举报

懒得打字嘛,点击右侧快捷回复 【右侧内容,后台自定义】
您需要登录后才可以回帖 登录 | 立即加入

本版积分规则

Archiver|小黑屋| 蓝光电影网 |网站地图

Copyright © 2021 Comsenz Inc. Powered by 蓝光电影网

蓝光电影网

本站内容由用户自主分享和转载自互联网,转载目的在于传递更多信息,并不代表本网赞同其观点和对其真实性负责。

如有侵权、违反国家法律政策行为,请联系我们,我们会第一时间及时清除和处理!

举报反馈邮箱:[email protected]

快速回复 返回顶部 返回列表