找回密码

蓝光电影网

查看: 14|回复: 0

[剧情] 没有布兰蒂什小姐的兰花 No.Orchids.for.Miss.Blandish.1948.1080p.BluRay.REMUX.AVC.DTS-HD.MA.1.0-FGT 26.03GB

[复制链接]
蓝光币
515
发表于 2019-6-14 11:57:00 | 显示全部楼层 |阅读模式


◎译  名 没有布兰蒂什蜜斯的兰花
◎片  名 No Orchids for Miss Blandish
◎年  代 1948
◎产  地 英国
◎类  别 剧情 / 犯罪
◎语  言 英语
◎上映日期 1948-04-13
◎IMDb评分  6.1/10 from 432 users
◎IMDb链接  http://www.imdb.com/title/tt0040647
◎豆瓣评分 0/10 from 0 users
◎豆瓣链接 https://movie.douban.com/subject/3422765/
◎片  长 UK: 104 分钟
◎导  演 圣约翰. L.克洛维斯
◎主  演 林登.特拉沃斯
      杰克.拉鲁
      休.麦克德莫特
      沃尔特. 克里山姆

◎标  签 剧情 | 人性 | 葛丽泰·嘉宝 | 犯罪 | hardley | 英国电影 | 产地/英国 | james
◎简  介  
  这部按照詹姆斯.哈德利.柴斯小说改编的电影报告一个年轻的女继续人行将走进一段包揽婚姻,却被一个包拍绑架,并爱上了其中一个成员的故事。
  1. Video
  2. ID                                       : 1
  3. Format                                   : AVC
  4. Format/Info                              : Advanced Video Codec
  5. Format profile                           : [email protected]
  6. Format settings                          : CABAC / 3 Ref Frames
  7. Format settings, CABAC                   : Yes
  8. Format settings, ReFrames                : 3 frames
  9. Codec ID                                 : V_MPEG4/ISO/AVC
  10. Duration                                 : 1 h 43 min
  11. Bit rate mode                            : Variable
  12. Bit rate                                 : 35.0 Mb/s
  13. Maximum bit rate                         : 38.0 Mb/s
  14. Width                                    : 1 920 pixels
  15. Height                                   : 1 080 pixels
  16. Display aspect ratio                     : 16:9
  17. Frame rate mode                          : Constant
  18. Frame rate                               : 23.976 (24000/1001) FPS
  19. Color space                              : YUV
  20. Chroma subsampling                       : 4:2:0
  21. Bit depth                                : 8 bits
  22. Scan type                                : Progressive
  23. Bits/(Pixel*Frame)                       : 0.704
  24. Stream size                              : 25.2 GiB (97%)
  25. Title                                    : No.Orchids.for.Miss.Blandish.1948.1080p.BluRay.REMUX.AVC.DTS-HD.MA.1.0-FGT
  26. Writing library                          : x264 core 148 r2705 3f5ed56
  27. Encoding settings                        : cabac=1 / ref=4 / deblock=0:-1:-1 / analyse=0x3:0x113 / me=umh / subme=8 / psy=1 / psy_rd=1.00:0.15 / mixed_ref=1 / me_range=16 / chroma_me=1 / trellis=1 / 8x8dct=1 / cqm=0 / deadzone=21,11 / fast_pskip=1 / chroma_qp_offset=-3 / threads=34 / lookahead_threads=5 / sliced_threads=0 / slices=4 / nr=0 / decimate=1 / interlaced=0 / bluray_compat=1 / constrained_intra=0 / bframes=3 / b_pyramid=1 / b_adapt=2 / b_bias=0 / direct=3 / weightb=1 / open_gop=1 / weightp=1 / keyint=24 / keyint_min=1 / scenecut=20 / intra_refresh=0 / rc_lookahead=24 / rc=abr / mbtree=0 / bitrate=35000 / ratetol=1.0 / qcomp=0.60 / qpmin=0 / qpmax=69 / qpstep=4 / vbv_maxrate=38000 / vbv_bufsize=30000 / nal_hrd=vbr / filler=0 / ip_ratio=1.40 / pb_ratio=1.30 / aq=1:0.70
  28. Language                                 : English
  29. Default                                  : No
  30. Forced                                   : No
  31. Color range                              : Limited
  32. Color primaries                          : BT.709
  33. Transfer characteristics                 : BT.709
  34. Matrix coefficients                      : BT.709
  35. Audio
  36. ID                                       : 2
  37. Format                                   : DTS XLL
  38. Format/Info                              : Digital Theater Systems
  39. Commercial name                          : DTS-HD Master Audio
  40. Codec ID                                 : A_DTS
  41. Duration                                 : 1 h 43 min
  42. Bit rate mode                            : Variable
  43. Bit rate                                 : 1 084 kb/s
  44. Channel(s)                               : 1 channel
  45. Channel layout                           : C
  46. Sampling rate                            : 48.0 kHz
  47. Frame rate                               : 93.750 FPS (512 SPF)
  48. Bit depth                                : 24 bits
  49. Compression mode                         : Lossless
  50. Stream size                              : 803 MiB (3%)
  51. Title                                    : No.Orchids.for.Miss.Blandish.1948.1080p.BluRay.REMUX.AVC.DTS-HD.MA.1.0-FGT
  52. Language                                 : English
  53. Default                                  : Yes
  54. Forced                                   : No
  55. Text
  56. ID                                       : 3
  57. Format                                   : PGS
  58. Muxing mode                              : zlib
  59. Codec ID                                 : S_HDMV/PGS
  60. Codec ID/Info                            : Picture based subtitle format used on BDs/HD-DVDs
  61. Duration                                 : 1 h 41 min
  62. Bit rate                                 : 42.6 kb/s
  63. Count of elements                        : 2850
  64. Stream size                              : 30.7 MiB (0%)
  65. Title                                    : English-PGS
  66. Language                                 : English
  67. Default                                  : Yes
  68. Forced                                   : No
  69. Menu
  70. 00:00:00.000                             : en:Chapter 01
  71. 00:06:11.329                             : en:Chapter 02
  72. 00:16:13.097                             : en:Chapter 03
  73. 00:26:48.106                             : en:Chapter 04
  74. 00:35:42.723                             : en:Chapter 05
  75. 00:46:29.077                             : en:Chapter 06
  76. 00:53:01.469                             : en:Chapter 07
  77. 00:59:47.000                             : en:Chapter 08
  78. 01:09:07.852                             : en:Chapter 09
  79. 01:19:59.878                             : en:Chapter 10
  80. 01:25:01.638                             : en:Chapter 11
  81. 01:33:09.792                             : en:Chapter 12
  82. 01:43:17.733                             : en:Chapter 13
复制代码






                                       
                                       

                                       
                                       
                                       




回复

使用道具 举报

懒得打字嘛,点击右侧快捷回复 【右侧内容,后台自定义】
您需要登录后才可以回帖 登录 | 立即加入

本版积分规则

Archiver|小黑屋| 蓝光电影网 |网站地图

Copyright © 2021 Comsenz Inc. Powered by 蓝光电影网

蓝光电影网

本站内容由用户自主分享和转载自互联网,转载目的在于传递更多信息,并不代表本网赞同其观点和对其真实性负责。

如有侵权、违反国家法律政策行为,请联系我们,我们会第一时间及时清除和处理!

举报反馈邮箱:[email protected]

快速回复 返回顶部 返回列表