找回密码

蓝光电影网

查看: 47|回复: 0

[动作] 深海狂鲨3 Deep.Blue.Sea.3.2020.1080p.BluRay.REMUX.AVC.DTS-HD.MA.5.1-FGT 14.61GB

[复制链接]
蓝光币
519
发表于 2020-7-30 21:12:59 | 显示全部楼层 |阅读模式


◎译  名 深海狂鲨3
◎片  名 Deep Blue Sea 3
◎年  代 2020
◎产  地 美国
◎类  别 行动 / 科幻 / 可骇
◎语  言 英语
◎上映日期 2020-07-28(美国)
◎IMDb链接  https://www.imdb.com/title/tt11946300
◎豆瓣评分 0/10 from 0 users
◎豆瓣链接 https://movie.douban.com/subject/35101514/
◎片  长 99分钟
◎导  演 约翰·波罗 John Pogue
◎编  剧 德克·布莱克曼 Dirk Blackman
◎主  演 纳撒尼尔·布佐尼克 Nathaniel Buzolic
       Emerson Brooks
       布伦·福斯特 Bren Foster
       苍丽娜 Reina Aoi
       Alex Bhat
       Siya Mayola
       Ernest St Claire
       DeVille Vannik
       Brashaad Mayweather
       坦妮娅·雷蒙德 Tania Raymonde
       欧内斯特·圣·克莱尔 Ernest St.Clair

◎标  签 2020 | 美国 | 线上
◎简  介

  
  Dr. Emma Collins and her team are spending their third summer on the island of Little Happy studying the effect of climate change on the great white sharks who come to the nearby nursery every year to give birth. Along with the last two inhabitants of this former fishing village, their peaceful life is disrupted when a "scientific" team led by her ex-boyfriend and marine biologist Richard show up looking for three bull sharks who we soon learn aren't just any bull sharks.
  1. Video
  2. ID                                       : 1
  3. ID in the original source medium         : 4113 (0x1011)
  4. Format                                   : AVC
  5. Format/Info                              : Advanced Video Codec
  6. Format profile                           : [email protected]
  7. Format settings                          : CABAC / 4 Ref Frames
  8. Format settings, CABAC                   : Yes
  9. Format settings, Reference frames        : 4 frames
  10. Format settings, GOP                     : M=3, N=12
  11. Codec ID                                 : V_MPEG4/ISO/AVC
  12. Duration                                 : 1 h 40 min
  13. Bit rate mode                            : Variable
  14. Bit rate                                 : 15.1 Mb/s
  15. Maximum bit rate                         : 38.0 Mb/s
  16. Width                                    : 1 920 pixels
  17. Height                                   : 1 080 pixels
  18. Display aspect ratio                     : 16:9
  19. Frame rate mode                          : Constant
  20. Frame rate                               : 23.976 (24000/1001/189150) FPS
  21. Color space                              : YUV
  22. Chroma subsampling                       : 4:2:0
  23. Bit depth                                : 8 bits
  24. Scan type                                : Progressive
  25. Bits/(Pixel*Frame)                       : 0.303
  26. Stream size                              : 10.5 GiB (72%)
  27. Title                                    : Deep.Blue.Sea.3.2020.1080p.BluRay.REMUX.AVC.DTS-HD.MA.5.1-FGT
  28. Language                                 : English
  29. Default                                  : No
  30. Forced                                   : No
  31. Original source medium                   : Blu-ray
  32. Audio #1
  33. ID                                       : 2
  34. ID in the original source medium         : 4352 (0x1100)
  35. Format                                   : DTS XLL
  36. Format/Info                              : Digital Theater Systems
  37. Commercial name                          : DTS-HD Master Audio
  38. Codec ID                                 : A_DTS
  39. Duration                                 : 1 h 40 min
  40. Bit rate mode                            : Variable
  41. Bit rate                                 : 4 262 kb/s
  42. Channel(s)                               : 6 channels
  43. Channel layout                           : C L R Ls Rs LFE
  44. Sampling rate                            : 48.0 kHz
  45. Frame rate                               : 93.750 FPS (512 SPF)
  46. Bit depth                                : 24 bits
  47. Compression mode                         : Lossless
  48. Stream size                              : 2.98 GiB (20%)
  49. Title                                    : Deep.Blue.Sea.3.2020.1080p.BluRay.REMUX.AVC.DTS-HD.MA.5.1-FGT
  50. Language                                 : English
  51. Default                                  : Yes
  52. Forced                                   : No
  53. Original source medium                   : Blu-ray
  54. Audio #2
  55. ID                                       : 3
  56. ID in the original source medium         : 4353 (0x1101)
  57. Format                                   : AC-3
  58. Format/Info                              : Audio Coding 3
  59. Commercial name                          : Dolby Digital
  60. Codec ID                                 : A_AC3
  61. Duration                                 : 1 h 40 min
  62. Bit rate mode                            : Constant
  63. Bit rate                                 : 640 kb/s
  64. Channel(s)                               : 6 channels
  65. Channel layout                           : L R C LFE Ls Rs
  66. Sampling rate                            : 48.0 kHz
  67. Frame rate                               : 31.250 FPS (1536 SPF)
  68. Bit depth                                : 16 bits
  69. Compression mode                         : Lossy
  70. Stream size                              : 459 MiB (3%)
  71. Title                                    : Deep.Blue.Sea.3.2020.1080p.BluRay.REMUX.AVC.DTS-HD.MA.5.1-FGT
  72. Language                                 : French
  73. Service kind                             : Complete Main
  74. Default                                  : No
  75. Forced                                   : No
  76. Original source medium                   : Blu-ray
  77. Audio #3
  78. ID                                       : 4
  79. ID in the original source medium         : 4354 (0x1102)
  80. Format                                   : AC-3
  81. Format/Info                              : Audio Coding 3
  82. Commercial name                          : Dolby Digital
  83. Codec ID                                 : A_AC3
  84. Duration                                 : 1 h 40 min
  85. Bit rate mode                            : Constant
  86. Bit rate                                 : 640 kb/s
  87. Channel(s)                               : 6 channels
  88. Channel layout                           : L R C LFE Ls Rs
  89. Sampling rate                            : 48.0 kHz
  90. Frame rate                               : 31.250 FPS (1536 SPF)
  91. Bit depth                                : 16 bits
  92. Compression mode                         : Lossy
  93. Stream size                              : 459 MiB (3%)
  94. Title                                    : Deep.Blue.Sea.3.2020.1080p.BluRay.REMUX.AVC.DTS-HD.MA.5.1-FGT
  95. Language                                 : German
  96. Service kind                             : Complete Main
  97. Default                                  : No
  98. Forced                                   : No
  99. Original source medium                   : Blu-ray
  100. Audio #4
  101. ID                                       : 5
  102. ID in the original source medium         : 4355 (0x1103)
  103. Format                                   : AC-3
  104. Format/Info                              : Audio Coding 3
  105. Commercial name                          : Dolby Digital
  106. Codec ID                                 : A_AC3
  107. Duration                                 : 1 h 40 min
  108. Bit rate mode                            : Constant
  109. Bit rate                                 : 192 kb/s
  110. Channel(s)                               : 2 channels
  111. Channel layout                           : L R
  112. Sampling rate                            : 48.0 kHz
  113. Frame rate                               : 31.250 FPS (1536 SPF)
  114. Bit depth                                : 16 bits
  115. Compression mode                         : Lossy
  116. Stream size                              : 138 MiB (1%)
  117. Title                                    : Deep.Blue.Sea.3.2020.1080p.BluRay.REMUX.AVC.DTS-HD.MA.5.1-FGT
  118. Language                                 : Spanish
  119. Service kind                             : Complete Main
  120. Default                                  : No
  121. Forced                                   : No
  122. Original source medium                   : Blu-ray
  123. Text #1
  124. ID                                       : 6
  125. Format                                   : UTF-8
  126. Codec ID                                 : S_TEXT/UTF8
  127. Codec ID/Info                            : UTF-8 Plain Text
  128. Duration                                 : 1 h 30 min
  129. Bit rate                                 : 48 b/s
  130. Count of elements                        : 1054
  131. Stream size                              : 32.1 KiB (0%)
  132. Title                                    : English-SRT
  133. Language                                 : English
  134. Default                                  : Yes
  135. Forced                                   : No
  136. Text #2
  137. ID                                       : 7
  138. ID in the original source medium         : 4608 (0x1200)
  139. Format                                   : PGS
  140. Muxing mode                              : zlib
  141. Codec ID                                 : S_HDMV/PGS
  142. Codec ID/Info                            : Picture based subtitle format used on BDs/HD-DVDs
  143. Duration                                 : 1 h 37 min
  144. Bit rate                                 : 32.0 kb/s
  145. Count of elements                        : 2460
  146. Stream size                              : 22.3 MiB (0%)
  147. Title                                    : English-PGS
  148. Language                                 : English
  149. Default                                  : No
  150. Forced                                   : No
  151. Original source medium                   : Blu-ray
  152. Text #3
  153. ID                                       : 8
  154. ID in the original source medium         : 4609 (0x1201)
  155. Format                                   : PGS
  156. Muxing mode                              : zlib
  157. Codec ID                                 : S_HDMV/PGS
  158. Codec ID/Info                            : Picture based subtitle format used on BDs/HD-DVDs
  159. Duration                                 : 1 h 38 min
  160. Bit rate                                 : 26.2 kb/s
  161. Count of elements                        : 2088
  162. Stream size                              : 18.4 MiB (0%)
  163. Title                                    : French-PGS
  164. Language                                 : French
  165. Default                                  : No
  166. Forced                                   : No
  167. Original source medium                   : Blu-ray
  168. Text #4
  169. ID                                       : 9
  170. ID in the original source medium         : 4610 (0x1202)
  171. Format                                   : PGS
  172. Muxing mode                              : zlib
  173. Codec ID                                 : S_HDMV/PGS
  174. Codec ID/Info                            : Picture based subtitle format used on BDs/HD-DVDs
  175. Duration                                 : 1 h 37 min
  176. Bit rate                                 : 34.1 kb/s
  177. Count of elements                        : 2460
  178. Stream size                              : 23.8 MiB (0%)
  179. Title                                    : German-PGS
  180. Language                                 : German
  181. Default                                  : No
  182. Forced                                   : No
  183. Original source medium                   : Blu-ray
  184. Text #5
  185. ID                                       : 10
  186. ID in the original source medium         : 4611 (0x1203)
  187. Format                                   : PGS
  188. Muxing mode                              : zlib
  189. Codec ID                                 : S_HDMV/PGS
  190. Codec ID/Info                            : Picture based subtitle format used on BDs/HD-DVDs
  191. Duration                                 : 1 h 38 min
  192. Bit rate                                 : 28.2 kb/s
  193. Count of elements                        : 2090
  194. Stream size                              : 19.9 MiB (0%)
  195. Title                                    : Spanish-PGS
  196. Language                                 : Spanish
  197. Default                                  : No
  198. Forced                                   : No
  199. Original source medium                   : Blu-ray
  200. Text #6
  201. ID                                       : 11
  202. ID in the original source medium         : 4612 (0x1204)
  203. Format                                   : PGS
  204. Muxing mode                              : zlib
  205. Codec ID                                 : S_HDMV/PGS
  206. Codec ID/Info                            : Picture based subtitle format used on BDs/HD-DVDs
  207. Duration                                 : 1 h 38 min
  208. Bit rate                                 : 24.2 kb/s
  209. Count of elements                        : 2068
  210. Stream size                              : 17.0 MiB (0%)
  211. Title                                    : Danish-PGS
  212. Language                                 : Danish
  213. Default                                  : No
  214. Forced                                   : No
  215. Original source medium                   : Blu-ray
  216. Text #7
  217. ID                                       : 12
  218. ID in the original source medium         : 4613 (0x1205)
  219. Format                                   : PGS
  220. Muxing mode                              : zlib
  221. Codec ID                                 : S_HDMV/PGS
  222. Codec ID/Info                            : Picture based subtitle format used on BDs/HD-DVDs
  223. Duration                                 : 1 h 38 min
  224. Bit rate                                 : 26.8 kb/s
  225. Count of elements                        : 2076
  226. Stream size                              : 18.8 MiB (0%)
  227. Title                                    : Finnish-PGS
  228. Language                                 : Finnish
  229. Default                                  : No
  230. Forced                                   : No
  231. Original source medium                   : Blu-ray
  232. Text #8
  233. ID                                       : 13
  234. ID in the original source medium         : 4614 (0x1206)
  235. Format                                   : PGS
  236. Muxing mode                              : zlib
  237. Codec ID                                 : S_HDMV/PGS
  238. Codec ID/Info                            : Picture based subtitle format used on BDs/HD-DVDs
  239. Duration                                 : 1 h 38 min
  240. Bit rate                                 : 25.2 kb/s
  241. Count of elements                        : 2086
  242. Stream size                              : 17.7 MiB (0%)
  243. Title                                    : Norwegian-PGS
  244. Language                                 : Norwegian
  245. Default                                  : No
  246. Forced                                   : No
  247. Original source medium                   : Blu-ray
  248. Text #9
  249. ID                                       : 14
  250. ID in the original source medium         : 4615 (0x1207)
  251. Format                                   : PGS
  252. Muxing mode                              : zlib
  253. Codec ID                                 : S_HDMV/PGS
  254. Codec ID/Info                            : Picture based subtitle format used on BDs/HD-DVDs
  255. Duration                                 : 1 h 38 min
  256. Bit rate                                 : 28.0 kb/s
  257. Count of elements                        : 2044
  258. Stream size                              : 19.7 MiB (0%)
  259. Title                                    : Swedish-PGS
  260. Language                                 : Swedish
  261. Default                                  : No
  262. Forced                                   : No
  263. Original source medium                   : Blu-ray
  264. Text #10
  265. ID                                       : 15
  266. ID in the original source medium         : 4616 (0x1208)
  267. Format                                   : PGS
  268. Muxing mode                              : zlib
  269. Codec ID                                 : S_HDMV/PGS
  270. Codec ID/Info                            : Picture based subtitle format used on BDs/HD-DVDs
  271. Duration                                 : 57 min 41 s
  272. Bit rate                                 : 107 b/s
  273. Count of elements                        : 4
  274. Stream size                              : 45.6 KiB (0%)
  275. Title                                    : French-FORCED-PGS
  276. Language                                 : French
  277. Default                                  : No
  278. Forced                                   : No
  279. Original source medium                   : Blu-ray
  280. Text #11
  281. ID                                       : 16
  282. ID in the original source medium         : 4617 (0x1209)
  283. Format                                   : PGS
  284. Muxing mode                              : zlib
  285. Codec ID                                 : S_HDMV/PGS
  286. Codec ID/Info                            : Picture based subtitle format used on BDs/HD-DVDs
  287. Duration                                 : 57 min 41 s
  288. Bit rate                                 : 100 b/s
  289. Count of elements                        : 4
  290. Stream size                              : 42.3 KiB (0%)
  291. Title                                    : Spanish-FORCED-PGS
  292. Language                                 : Spanish
  293. Default                                  : No
  294. Forced                                   : No
  295. Original source medium                   : Blu-ray
  296. Text #12
  297. ID                                       : 17
  298. ID in the original source medium         : 4618 (0x120A)
  299. Format                                   : PGS
  300. Muxing mode                              : zlib
  301. Codec ID                                 : S_HDMV/PGS
  302. Codec ID/Info                            : Picture based subtitle format used on BDs/HD-DVDs
  303. Duration                                 : 2 s 106 ms
  304. Bit rate                                 : 56.1 kb/s
  305. Count of elements                        : 2
  306. Stream size                              : 14.4 KiB (0%)
  307. Title                                    : German-FORCED-PGS
  308. Language                                 : German
  309. Default                                  : No
  310. Forced                                   : No
  311. Original source medium                   : Blu-ray
  312. Menu
  313. 00:00:00.000                             : en:Chapter 01
  314. 00:09:50.006                             : en:Chapter 02
  315. 00:19:15.154                             : en:Chapter 03
  316. 00:28:50.270                             : en:Chapter 04
  317. 00:38:06.033                             : en:Chapter 05
  318. 00:45:09.289                             : en:Chapter 06
  319. 00:54:28.890                             : en:Chapter 07
  320. 01:04:14.141                             : en:Chapter 08
  321. 01:14:12.406                             : en:Chapter 09
  322. 01:23:10.819                             : en:Chapter 10
  323. 01:32:48.229                             : en:Chapter 11
复制代码






                                       
                                       

                                       
                                       
                                       




回复

使用道具 举报

懒得打字嘛,点击右侧快捷回复 【右侧内容,后台自定义】
您需要登录后才可以回帖 登录 | 立即加入

本版积分规则

Archiver|小黑屋| 蓝光电影网 |网站地图

Copyright © 2021 Comsenz Inc. Powered by 蓝光电影网

蓝光电影网

本站内容由用户自主分享和转载自互联网,转载目的在于传递更多信息,并不代表本网赞同其观点和对其真实性负责。

如有侵权、违反国家法律政策行为,请联系我们,我们会第一时间及时清除和处理!

举报反馈邮箱:[email protected]

快速回复 返回顶部 返回列表