找回密码

蓝光电影网

查看: 21|回复: 0

[喜剧] 特拉·威利:未知星球 Terra.Willy.Planete.Inconnue.2019.FRENCH.1080p.BluRay.x264.DD5.1-BdC 6.10GB

[复制链接]
蓝光币
515
发表于 2020-11-21 16:53:50 | 显示全部楼层 |阅读模式


◎译  名 特拉·威利:未知星球/Astro Kid/威利的异星大冒险(台)
◎片  名 Terra Willy: Planète inconnue
◎年  代 2019
◎产  地 法国
◎类  别 笑剧 / 动画
◎语  言 法语
◎上映日期 2019-02-13(法国)
◎IMDb评分  6.6/10 from 1222 users
◎IMDb链接  https://www.imdb.com/title/tt8329148/
◎豆瓣评分 7.3/10 from 90 users
◎豆瓣链接 https://movie.douban.com/subject/33394682/
◎片  长 90分钟
◎导  演 埃里克托斯蒂 Eric Tosti
◎编  剧 大卫阿拉克斯 David Alaux / 埃里克托斯蒂 Eric Tosti / 让·弗朗索瓦·托斯蒂 Jean-Fran?ois Tosti
◎主  演 埃德瓦·贝耶 Edouard Baer
       芭芭拉·蒂西耶 Barbara Tissier
       兰登·比提 Landen Beattie
◎标  签 2019 | 法国 | 动画片 | 冒险 | 奇异 | 动画 | 2019北京国际电影节 | G法国
◎简  介


  在飞船被毁以后,威利的救生舱下降在一个看似荒无人烟的星球上。在保存机械人巴克的帮助下,威利必须对峙期待救济队的到来。与此同时,威利、巴克和他们新交的外星朋友弗莱什起头摸索这个星球。但是,星球上除了美丽的风光,还潜藏着庞大的危险。
  1. Video
  2. ID                                       : 1
  3. Format                                   : AVC
  4. Format/Info                              : Advanced Video Codec
  5. Format profile                           : [email protected]
  6. Format settings                          : CABAC / 5 Ref Frames
  7. Format settings, CABAC                   : Yes
  8. Format settings, Reference frames        : 5 frames
  9. Codec ID                                 : V_MPEG4/ISO/AVC
  10. Duration                                 : 1 h 29 min
  11. Bit rate                                 : 9 099 kb/s
  12. Width                                    : 1 920 pixels
  13. Height                                   : 804 pixels
  14. Display aspect ratio                     : 2.40:1
  15. Frame rate mode                          : Constant
  16. Frame rate                               : 24.000 FPS
  17. Color space                              : YUV
  18. Chroma subsampling                       : 4:2:0
  19. Bit depth                                : 8 bits
  20. Scan type                                : Progressive
  21. Bits/(Pixel*Frame)                       : 0.246
  22. Stream size                              : 5.70 GiB (93%)
  23. Writing library                          : x264 core 160 r3000 33f9e14
  24. Encoding settings                        : cabac=1 / ref=5 / deblock=1:-3:-3 / analyse=0x3:0x133 / me=umh / subme=11 / psy=1 / psy_rd=1.05:0.00 / mixed_ref=1 / me_range=32 / chroma_me=1 / trellis=2 / 8x8dct=1 / cqm=0 / deadzone=21,11 / fast_pskip=0 / chroma_qp_offset=-2 / threads=12 / lookahead_threads=2 / sliced_threads=0 / nr=0 / decimate=0 / interlaced=0 / bluray_compat=0 / constrained_intra=0 / bframes=9 / b_pyramid=2 / b_adapt=2 / b_bias=0 / direct=3 / weightb=1 / open_gop=0 / weightp=2 / keyint=240 / keyint_min=24 / scenecut=40 / intra_refresh=0 / rc_lookahead=60 / rc=2pass / mbtree=0 / bitrate=9099 / ratetol=1.0 / qcomp=0.65 / qpmin=0 / qpmax=69 / qpstep=4 / cplxblur=20.0 / qblur=0.5 / vbv_maxrate=50000 / vbv_bufsize=62500 / nal_hrd=none / filler=0 / ip_ratio=1.40 / pb_ratio=1.30 / aq=3:0.80
  25. Default                                  : Yes
  26. Forced                                   : No
  27. Color range                              : Limited
  28. Color primaries                          : BT.709
  29. Transfer characteristics                 : BT.709
  30. Matrix coefficients                      : BT.709
  31. Audio
  32. ID                                       : 2
  33. Format                                   : AC-3
  34. Format/Info                              : Audio Coding 3
  35. Commercial name                          : Dolby Digital
  36. Codec ID                                 : A_AC3
  37. Duration                                 : 1 h 29 min
  38. Bit rate mode                            : Constant
  39. Bit rate                                 : 640 kb/s
  40. Channel(s)                               : 6 channels
  41. Channel layout                           : L R C LFE Ls Rs
  42. Sampling rate                            : 48.0 kHz
  43. Frame rate                               : 31.250 FPS (1536 SPF)
  44. Compression mode                         : Lossy
  45. Stream size                              : 410 MiB (7%)
  46. Language                                 : French
  47. Service kind                             : Complete Main
  48. Default                                  : Yes
  49. Forced                                   : No
  50. Text #1
  51. ID                                       : 3
  52. Format                                   : UTF-8
  53. Codec ID                                 : S_TEXT/UTF8
  54. Codec ID/Info                            : UTF-8 Plain Text
  55. Duration                                 : 1 h 23 min
  56. Bit rate                                 : 30 b/s
  57. Count of elements                        : 802
  58. Stream size                              : 19.0 KiB (0%)
  59. Language                                 : English
  60. Default                                  : No
  61. Forced                                   : No
  62. Text #2
  63. ID                                       : 4
  64. Format                                   : UTF-8
  65. Codec ID                                 : S_TEXT/UTF8
  66. Codec ID/Info                            : UTF-8 Plain Text
  67. Duration                                 : 1 h 25 min
  68. Bit rate                                 : 33 b/s
  69. Count of elements                        : 592
  70. Stream size                              : 20.9 KiB (0%)
  71. Language                                 : Spanish
  72. Default                                  : No
  73. Forced                                   : No
  74. Menu
  75. 00:00:00.000                             : en:00:00:00.000
  76. 00:07:01.083                             : en:00:07:01.083
  77. 00:15:56.792                             : en:00:15:56.792
  78. 00:21:24.542                             : en:00:21:24.542
  79. 00:30:23.208                             : en:00:30:23.208
  80. 00:38:15.208                             : en:00:38:15.208
  81. 00:46:19.958                             : en:00:46:19.958
  82. 00:52:59.583                             : en:00:52:59.583
  83. 01:01:29.208                             : en:01:01:29.208
  84. 01:09:12.542                             : en:01:09:12.542
  85. 01:16:09.083                             : en:01:16:09.083
  86. 01:23:40.083                             : en:01:23:40.083
复制代码






                                       
                                       

                                       
                                       
                                       




回复

使用道具 举报

懒得打字嘛,点击右侧快捷回复 【右侧内容,后台自定义】
您需要登录后才可以回帖 登录 | 立即加入

本版积分规则

Archiver|小黑屋| 蓝光电影网 |网站地图

Copyright © 2021 Comsenz Inc. Powered by 蓝光电影网

蓝光电影网

本站内容由用户自主分享和转载自互联网,转载目的在于传递更多信息,并不代表本网赞同其观点和对其真实性负责。

如有侵权、违反国家法律政策行为,请联系我们,我们会第一时间及时清除和处理!

举报反馈邮箱:[email protected]

快速回复 返回顶部 返回列表