找回密码

蓝光电影网

查看: 17|回复: 0

[动作] 死神剧场版:钻石星尘的反叛 另一个冰轮丸/死神 剧场版2 钻石星尘的反叛 另一个冰轮丸 Bleach.Movie.2.The.Diamond.Dust.Rebellion.2007.1080p.BluRay.x264-JustWatch 6.56GB

[复制链接]
蓝光币
511
发表于 2019-8-18 03:21:11 | 显示全部楼层 |阅读模式


◎译  名 死神戏院版:钻石星尘的叛逆 另一个冰轮丸 / 死神 戏院版2 钻石星尘的叛逆 另一个冰轮丸 / 死神戏院版:冰轮丸叛乱 / 钻石星尘的叛逆~另一个冰轮丸
◎片  名 劇場版 BLEACH ブリーチ The DiamondDust Rebellion もう一つの氷輪丸
◎年  代 2007
◎产  地 日本
◎类  别 行动 / 动画 / 惊悚 / 可骇
◎语  言 日语
◎上映日期 2007-12-22(日本)
◎IMDb评分  7.2/10 from 2427 users
◎IMDb链接  http://www.imdb.com/title/tt1148261
◎豆瓣评分 7.2/10 from 6536 users
◎豆瓣链接 https://movie.douban.com/subject/2361919/
◎片  长 92 分钟
◎导  演 阿部记之 Noriyuki Abe
◎编  剧 横手美智子 Michiko Yokote / 大久保昌弘 / 久保带人 Tite Kubo
◎主  演 森田成一 Masakazu Morita
       朴璐美 Romi Pak
       石田彰 Akira Ishida
       安元洋贵 Hiroki Yasumoto
       杉山纪彰 Noriaki Sugiyama
       大塚明夫 Akio ?tsuka
       立木文彦 Fumihiko Tachiki
       置鲇龙太郎 Ry?tar? Okiayu
       伊藤健太郎 Kentar? It?
       塚田正昭 Masaaki Tsukada
       樫井笙人
       雪野五月 Satsuki Yukino
       樱井孝宏 Takahiro Sakurai
       野上尤加奈
       松谷彼哉
       中尾隆圣 Ry?sei Nakao
       菅生隆之 Takayuki Sugo
       森川智之 Toshiyuki Morikawa
       瀬那歩美
       折笠富美子 Fumiko Orikasa
       川上伦子 Tomoko Kawakami
       久川绫 Aya Hisakawa
       稻田彻 Tetsu Inada
       石川英郎 Hideo Ishikawa
       小西克幸 Katsuyuki Konishi
       福山润 Jun Fukuyama
       西村千奈美 Chinami Nishimura
       松冈由贵 Yuki Matsuoka
       生天目仁美 Hitomi Nabatame
       桧山修之 Nobuyuki Hiyama
       三木真一郎 Shinichir? Miki
       大原沙耶香 Sayaka Ohara
       武虎 Taketora

◎标  签 戏院版 | BLEACH | 日本 | 动画 | 动漫 | 死神戏院版 | 日本动画 | 死神
◎简  介  
  在负责押送尸魂界王族秘宝“王印”的途中,一股奥秘气力忽然袭来,十番队虽奋力还击,却毕竟丢掉秘宝,日番谷冬狮郎(朴璐美 配音)也在阵前莫名流亡。未几,日番谷临阵逃走的报告传遍尸魂界,黑崎一护(森田成一 配音)从二番队队长碎蜂口中得知委曲,以后碰见并救济了体力不支倒地的日番谷,继而得知攻击护送队伍且与日番谷比武的是一个早已死掉的死神草冠。这两小我昔时曾是一面之交,他们的关系也让攻击事务变得扑朔迷离。日番谷的暗昧态度零十番队蒙受软禁惩罚,而草冠的背后有隐藏着怎样的势力和奥秘?
  本片按照日本漫画家久保带人的同名原著改编,系该动画的第二部戏院版。
  1. Video
  2. ID                                       : 1
  3. Format                                   : AVC
  4. Format/Info                              : Advanced Video Codec
  5. Format profile                           : [email protected]
  6. Format settings                          : CABAC / 4 Ref Frames
  7. Format settings, CABAC                   : Yes
  8. Format settings, ReFrames                : 4 frames
  9. Codec ID                                 : V_MPEG4/ISO/AVC
  10. Duration                                 : 1 h 32 min
  11. Bit rate                                 : 7 094 kb/s
  12. Width                                    : 1 920 pixels
  13. Height                                   : 1 040 pixels
  14. Display aspect ratio                     : 1.85:1
  15. Frame rate mode                          : Constant
  16. Frame rate                               : 23.976 (24000/1001) FPS
  17. Color space                              : YUV
  18. Chroma subsampling                       : 4:2:0
  19. Bit depth                                : 8 bits
  20. Scan type                                : Progressive
  21. Bits/(Pixel*Frame)                       : 0.148
  22. Stream size                              : 4.60 GiB (70%)
  23. Writing library                          : x264 core 157 r2935 545de2f
  24. Encoding settings                        : cabac=1 / ref=4 / deblock=1:-1:-2 / analyse=0x3:0x113 / me=umh / subme=8 / psy=1 / psy_rd=1.00:0.00 / mixed_ref=1 / me_range=16 / chroma_me=1 / trellis=2 / 8x8dct=1 / cqm=0 / deadzone=21,11 / fast_pskip=1 / chroma_qp_offset=-2 / threads=12 / lookahead_threads=2 / sliced_threads=0 / nr=0 / decimate=1 / interlaced=0 / bluray_compat=0 / constrained_intra=0 / bframes=3 / b_pyramid=2 / b_adapt=2 / b_bias=0 / direct=3 / weightb=1 / open_gop=0 / weightp=2 / keyint=240 / keyint_min=24 / scenecut=40 / intra_refresh=0 / rc_lookahead=50 / rc=2pass / mbtree=1 / bitrate=7094 / ratetol=1.0 / qcomp=0.60 / qpmin=0 / qpmax=69 / qpstep=4 / cplxblur=20.0 / qblur=0.5 / ip_ratio=1.40 / aq=1:1.00
  25. Language                                 : English
  26. Default                                  : Yes
  27. Forced                                   : No

  28. Audio #1
  29. ID                                       : 2
  30. Format                                   : DTS
  31. Format/Info                              : Digital Theater Systems
  32. Codec ID                                 : A_DTS
  33. Duration                                 : 1 h 32 min
  34. Bit rate mode                            : Constant
  35. Bit rate                                 : 1 509 kb/s
  36. Channel(s)                               : 6 channels
  37. Channel layout                           : C L R Ls Rs LFE
  38. Sampling rate                            : 48.0 kHz
  39. Frame rate                               : 93.750 FPS (512 SPF)
  40. Bit depth                                : 24 bits
  41. Compression mode                         : Lossy
  42. Stream size                              : 1 001 MiB (15%)
  43. Language                                 : Japanese
  44. Default                                  : Yes
  45. Forced                                   : No

  46. Audio #2
  47. ID                                       : 3
  48. Format                                   : DTS
  49. Format/Info                              : Digital Theater Systems
  50. Codec ID                                 : A_DTS
  51. Duration                                 : 1 h 32 min
  52. Bit rate mode                            : Constant
  53. Bit rate                                 : 1 509 kb/s
  54. Channel(s)                               : 6 channels
  55. Channel layout                           : C L R Ls Rs LFE
  56. Sampling rate                            : 48.0 kHz
  57. Frame rate                               : 93.750 FPS (512 SPF)
  58. Bit depth                                : 24 bits
  59. Compression mode                         : Lossy
  60. Stream size                              : 1 001 MiB (15%)
  61. Language                                 : English
  62. Default                                  : No
  63. Forced                                   : No

  64. Text
  65. ID                                       : 4
  66. Format                                   : UTF-8
  67. Codec ID                                 : S_TEXT/UTF8
  68. Codec ID/Info                            : UTF-8 Plain Text
  69. Duration                                 : 10 min 16 s
  70. Bit rate                                 : 1 b/s
  71. Count of elements                        : 4
  72. Stream size                              : 118 Bytes (0%)
  73. Language                                 : English
  74. Default                                  : Yes
  75. Forced                                   : No

  76. Menu
  77. 00:00:00.000                             : :00:00:00.000
  78. 00:05:46.638                             : :00:05:46.638
  79. 00:13:48.536                             : :00:13:48.536
  80. 00:24:26.965                             : :00:24:26.965
  81. 00:35:20.160                             : :00:35:20.160
  82. 00:46:24.281                             : :00:46:24.281
  83. 00:53:55.149                             : :00:53:55.149
  84. 01:02:21.112                             : :01:02:21.112
  85. 01:13:46.839                             : :01:13:46.839
  86. 01:27:42.632                             : :01:27:42.632
复制代码




                                       
                                       

                                       
                                       
                                       




回复

使用道具 举报

懒得打字嘛,点击右侧快捷回复 【右侧内容,后台自定义】
您需要登录后才可以回帖 登录 | 立即加入

本版积分规则

Archiver|小黑屋| 蓝光电影网 |网站地图

Copyright © 2021 Comsenz Inc. Powered by 蓝光电影网

蓝光电影网

本站内容由用户自主分享和转载自互联网,转载目的在于传递更多信息,并不代表本网赞同其观点和对其真实性负责。

如有侵权、违反国家法律政策行为,请联系我们,我们会第一时间及时清除和处理!

举报反馈邮箱:[email protected]

快速回复 返回顶部 返回列表