找回密码

蓝光电影网

查看: 17|回复: 0

[其他] 魔鬼双瞳 Two.Evil.Eyes.1990.1080p.BluRay.x264-LCHD 8.74GB

[复制链接]
蓝光币
733
发表于 2020-9-28 09:30:12 | 显示全部楼层 |阅读模式


◎译  名 魔鬼双瞳/Two Evil Eyes/双凶眼
◎片  名 Due occhi diabolici
◎年  代 1990
◎产  地 意大利,美国
◎类  别 悬疑 / 惊悚 / 可骇 / 奇异
◎语  言 英语
◎上映日期 1990-01-25(意大利) / 1991-10-25(美国)
◎IMDb评分  6.1/10 from 6063 users
◎IMDb链接  https://www.imdb.com/title/tt0100827/
◎豆瓣评分 6.4/10 from 648 users
◎豆瓣链接 https://movie.douban.com/subject/1841529/
◎片  长 120 分钟
◎导  演 达里奥·阿基多 Dario Argento / 乔治·A·罗梅罗 George A. Romero
◎编  剧 达里奥·阿基多 Dario Argento / 弗兰科·费里尼 Franco Ferrini / 埃德加·爱伦·坡  Edgar Allan Poe / 乔治·A·罗梅罗 George A. Romero
◎主  演 阿德里安娜·巴比欧 Adrienne Barbeau
       Ramy Zada
       宾戈·奥马利 Bingo O'Malley
       E.G.马绍尔 E.G. Marshall
       哈威·凯特尔 Harvey Keitel
       马德琳·波特 Madeleine Potter
       约翰·阿莫斯 John Amos
       莎莉·柯克兰德 Sally Kirkland
       金·亨特 Kim Hunter
       霍尔特·格拉汉姆 Holter Graham
       马丁·鲍尔萨姆 Martin Balsam
       乔纳森·亚当斯 Jonathan Adams
       汤姆·阿特金斯 Tom Atkins
       朱莉·本茨 Julie Benz
       Bill Dalzell
       Charles McPherson
       杰夫·莫纳汉 Jeff Monahan
       Peggy McIntaggart
       Jonathan Sachar
       汤姆·萨维尼 Tom Savini
◎标  签 可骇 | 美国 | 意大利 | 惊悚 | Dario_Argento | 悬疑 | 可骇电影 | George.A.Romero
◎简  介


  影片分为两个故事,全数按照爱伦?坡的小说改编。
  
  杰西卡(Adrienne Barbeau 饰)的丈夫厄尼斯特(Bingo O'Malley 饰)不成救药,神经病医生罗伯特(Ramy Zada 饰)与杰西卡有染。两人合股撺掇厄尼斯特将数百万遗产留给妻子。这对男女终极如愿以偿,但愤慨的厄尼斯特再度新生,势要复仇……
  
  摄影师罗德(Harvey Keitel 饰)的女友安娜贝尔(Madeleine Potter 饰)带回一只流浪的黑猫。黑猫的啼声让本就焦躁不已的罗德难以忍受。他一气之下杀死黑猫,却不曾想今后走入黑暗可骇的噩梦当中……
  1. Video
  2. ID                                       : 1
  3. Format                                   : AVC
  4. Format/Info                              : Advanced Video Codec
  5. Format profile                           : [email protected]
  6. Format settings                          : CABAC / 4 Ref Frames
  7. Format settings, CABAC                   : Yes
  8. Format settings, Reference frames        : 4 frames
  9. Codec ID                                 : V_MPEG4/ISO/AVC
  10. Duration                                 : 1 h 59 min
  11. Bit rate                                 : 8 929 kb/s
  12. Width                                    : 1 920 pixels
  13. Height                                   : 1 080 pixels
  14. Display aspect ratio                     : 16:9
  15. Frame rate mode                          : Constant
  16. Frame rate                               : 23.976 (24000/1001/189150) FPS
  17. Color space                              : YUV
  18. Chroma subsampling                       : 4:2:0
  19. Bit depth                                : 8 bits
  20. Scan type                                : Progressive
  21. Bits/(Pixel*Frame)                       : 0.180
  22. Stream size                              : 7.30 GiB (84%)
  23. Writing library                          : x264 core 94 r1583 7608d73
  24. Encoding settings                        : cabac=1 / ref=4 / deblock=1:-1:-1 / analyse=0x3:0x113 / me=umh / subme=7 / psy=1 / psy_rd=1.00:0.00 / mixed_ref=1 / me_range=16 / chroma_me=1 / trellis=2 / 8x8dct=1 / cqm=0 / deadzone=21,11 / fast_pskip=1 / chroma_qp_offset=-2 / threads=6 / sliced_threads=0 / nr=0 / decimate=1 / interlaced=0 / constrained_intra=0 / bframes=3 / b_pyramid=2 / b_adapt=2 / b_bias=0 / direct=3 / weightb=1 / weightp=2 / keyint=250 / keyint_min=25 / scenecut=40 / intra_refresh=0 / rc_lookahead=40 / rc=2pass / mbtree=1 / bitrate=8929 / ratetol=1.0 / qcomp=0.60 / qpmin=10 / qpmax=51 / qpstep=4 / cplxblur=20.0 / qblur=0.5 / vbv_maxrate=50000 / vbv_bufsize=50000 / ip_ratio=1.40 / aq=1:1.00 / nal_hrd=none
  25. Language                                 : English
  26. Default                                  : Yes
  27. Forced                                   : Yes

  28. Audio
  29. ID                                       : 2
  30. Format                                   : DTS
  31. Format/Info                              : Digital Theater Systems
  32. Codec ID                                 : A_DTS
  33. Duration                                 : 1 h 59 min
  34. Bit rate mode                            : Constant
  35. Bit rate                                 : 1 509 kb/s
  36. Channel(s)                               : 6 channels
  37. Channel layout                           : C L R Ls Rs LFE
  38. Sampling rate                            : 48.0 kHz
  39. Frame rate                               : 93.750 FPS (512 SPF)
  40. Bit depth                                : 24 bits
  41. Compression mode                         : Lossy
  42. Stream size                              : 1.26 GiB (14%)
  43. Language                                 : English
  44. Default                                  : Yes
  45. Forced                                   : Yes
复制代码









                                       
                                       

                                       
                                       
                                       




回复

使用道具 举报

懒得打字嘛,点击右侧快捷回复 【右侧内容,后台自定义】
您需要登录后才可以回帖 登录 | 立即加入

本版积分规则

Archiver|小黑屋| 蓝光电影网 |网站地图

Copyright © 2021 Comsenz Inc. Powered by 蓝光电影网

蓝光电影网

本站内容由用户自主分享和转载自互联网,转载目的在于传递更多信息,并不代表本网赞同其观点和对其真实性负责。

如有侵权、违反国家法律政策行为,请联系我们,我们会第一时间及时清除和处理!

举报反馈邮箱:[email protected]

快速回复 返回顶部 返回列表