找回密码

蓝光电影网

查看: 23|回复: 0

[喜剧] 极限高飞 An.Extremely.Goofy.Movie.2000.1080p.BluRay.REMUX.AVC.DTS-HD.MA.5.1-FGT 17.84GB

[复制链接]
蓝光币
515
发表于 2019-5-22 18:58:50 | 显示全部楼层 |阅读模式




◎译  名 极限高飞
◎片  名 An Extremely Goofy Movie
◎年  代 2000
◎产  地 美国 / 澳大利亚
◎类  别 笑剧 / 动画 / 家庭 / 活动
◎语  言 英语
◎上映日期 2000-02-29
◎IMDb评分  6.4/10 from 8328 users
◎IMDb链接  http://www.imdb.com/title/tt0208185
◎豆瓣评分 6.7/10 from 68 users
◎豆瓣链接 https://movie.douban.com/subject/3506365/
◎片  长 76 分钟
◎导  演 Douglas McCarthy
◎标  签 动画 | 迪斯尼 | 美国 | 迪士尼电影版卡通 | 电影 | 动画片 | 動畫 | Disney·迪士尼
◎简  介  
  继1995年迪士尼推出《终极傻瓜》(A Goofy Movie)电影上映遭到热烈接待以后,因而迪士尼决议再度推出第二集。本片大部分是在迪士尼悉尼片厂所完成的,内容则是衍生在 Goofy 的儿子 Max 上大学后的故事,与电视影集与电影第一集相较,《高飞家属》电视影集 Max 年龄是设定在14岁;电影第一集《终极傻瓜》Max 则是设定为16岁;而在本片中,Max 年数则是设定为19或20岁。本片故事焦点还是摆在亲子间的代沟题目,当 Max 升上大学后,期待他的是自在自在的自在又刺激的生活,而他阿谁爸爸 Goofy ,在此时对 Max 而言,活像是个未进化的古玩似的,正当 Max 光荣今后摆脱高飞家属脱线阴影的同时,不意他爸爸 Goofy 也来到他的黉舍上课,当他爸爸居然穿着70年月的衣服出现在校园的时辰,Max 感觉丢脸丟大了!但是,最初 Max 还是发现,不管若何他和爸爸还是最好拍档,永久的“高飞家属”!
◎获奖情况  
  第28届动画安妮奖(2000)
  最好男配音(提名) 比尔·法玛尔
  最好特别动画

  1. Video
  2. ID                                       : 1
  3. Format                                   : AVC
  4. Format/Info                              : Advanced Video Codec
  5. Format profile                           : [email protected]
  6. Format settings                          : CABAC / 4 Ref Frames
  7. Format settings, CABAC                   : Yes
  8. Format settings, ReFrames                : 4 frames
  9. Codec ID                                 : V_MPEG4/ISO/AVC
  10. Duration                                 : 1 h 18 min
  11. Bit rate mode                            : Variable
  12. Bit rate                                 : 28.0 Mb/s
  13. Maximum bit rate                         : 34.0 Mb/s
  14. Width                                    : 1 920 pixels
  15. Height                                   : 1 080 pixels
  16. Display aspect ratio                     : 16:9
  17. Frame rate mode                          : Constant
  18. Frame rate                               : 23.976 (24000/1001) FPS
  19. Color space                              : YUV
  20. Chroma subsampling                       : 4:2:0
  21. Bit depth                                : 8 bits
  22. Scan type                                : Progressive
  23. Bits/(Pixel*Frame)                       : 0.563
  24. Stream size                              : 15.4 GiB (87%)
  25. Title                                    : An.Extremely.Goofy.Movie.2000.1080p.BluRay.REMUX.AVC.DTS-HD.MA.5.1-FGT
  26. Language                                 : English
  27. Default                                  : No
  28. Forced                                   : No
  29. Audio
  30. ID                                       : 2
  31. Format                                   : DTS XLL
  32. Format/Info                              : Digital Theater Systems
  33. Commercial name                          : DTS-HD Master Audio
  34. Codec ID                                 : A_DTS
  35. Duration                                 : 1 h 19 min
  36. Bit rate mode                            : Variable
  37. Bit rate                                 : 4 292 kb/s
  38. Channel(s)                               : 6 channels
  39. Channel layout                           : C L R Ls Rs LFE
  40. Sampling rate                            : 48.0 kHz
  41. Frame rate                               : 93.750 FPS (512 SPF)
  42. Bit depth                                : 24 bits
  43. Compression mode                         : Lossless
  44. Stream size                              : 2.37 GiB (13%)
  45. Title                                    : An.Extremely.Goofy.Movie.2000.1080p.BluRay.REMUX.AVC.DTS-HD.MA.5.1-FGT
  46. Language                                 : English
  47. Default                                  : Yes
  48. Forced                                   : No
  49. Text
  50. ID                                       : 3
  51. Format                                   : PGS
  52. Muxing mode                              : zlib
  53. Codec ID                                 : S_HDMV/PGS
  54. Codec ID/Info                            : Picture based subtitle format used on BDs/HD-DVDs
  55. Duration                                 : 1 h 15 min
  56. Bit rate                                 : 71.8 kb/s
  57. Count of elements                        : 2412
  58. Stream size                              : 38.9 MiB (0%)
  59. Title                                    : English-PGS
  60. Language                                 : English
  61. Default                                  : Yes
  62. Forced                                   : No
  63. Menu
  64. 00:00:00.000                             : en:Chapter 01
  65. 00:07:15.435                             : en:Chapter 02
  66. 00:10:51.859                             : en:Chapter 03
  67. 00:15:10.993                             : en:Chapter 04
  68. 00:20:51.416                             : en:Chapter 05
  69. 00:21:45.804                             : en:Chapter 06
  70. 00:26:39.472                             : en:Chapter 07
  71. 00:30:45.802                             : en:Chapter 08
  72. 00:33:57.452                             : en:Chapter 09
  73. 00:35:43.141                             : en:Chapter 10
  74. 00:40:33.639                             : en:Chapter 11
  75. 00:46:29.369                             : en:Chapter 12
  76. 00:49:46.149                             : en:Chapter 13
  77. 00:51:01.349                             : en:Chapter 14
  78. 00:55:38.501                             : en:Chapter 15
  79. 00:57:05.630                             : en:Chapter 16
  80. 00:59:23.768                             : en:Chapter 17
  81. 01:02:16.566                             : en:Chapter 18
  82. 01:07:39.388                             : en:Chapter 19
  83. 01:11:08.806                             : en:Chapter 20
  84. 01:13:12.096                             : en:Chapter 21
复制代码






                                       
                                       

                                       
                                       
                                       




回复

使用道具 举报

懒得打字嘛,点击右侧快捷回复 【右侧内容,后台自定义】
您需要登录后才可以回帖 登录 | 立即加入

本版积分规则

Archiver|小黑屋| 蓝光电影网 |网站地图

Copyright © 2021 Comsenz Inc. Powered by 蓝光电影网

蓝光电影网

本站内容由用户自主分享和转载自互联网,转载目的在于传递更多信息,并不代表本网赞同其观点和对其真实性负责。

如有侵权、违反国家法律政策行为,请联系我们,我们会第一时间及时清除和处理!

举报反馈邮箱:[email protected]

快速回复 返回顶部 返回列表