找回密码

蓝光电影网

查看: 11|回复: 0

[其他] 沉默寡言 Few.Words.2012.1080p.BluRay.x264-HANDJOB 5.05GB

[复制链接]
蓝光币
519
发表于 2020-9-28 09:18:05 | 显示全部楼层 |阅读模式


◎译  名 沉默寡言
◎片  名 Few Words
◎年  代 2012
◎产  地 法国
◎类  别 记载片
◎语  言 英语,法语
◎上映日期 2012-10-20(法国)
◎IMDb评分  8.4/10 from 246 users
◎IMDb链接  https://www.imdb.com/title/tt2899432/
◎豆瓣评分 /10 from 0 users
◎豆瓣链接 https://movie.douban.com/subject/26708638/
◎片  长 56分钟
◎标  签 记载片 | 活动
◎简  介


  Few Words is the story of a modern skiing pioneer, who became one of the most successful and talented freestyle skiers in the world, Candide Thovex. Winner of the Best Male Performance (Candide Thovex), the Full Throttle Award, the Best Cinematography Award and the Best Documentary Award at the Powder Awards, Utah, USA
  1. Video
  2. ID                                       : 1
  3. Format                                   : AVC
  4. Format/Info                              : Advanced Video Codec
  5. Format profile                           : [email protected]
  6. Format settings                          : CABAC / 4 Ref Frames
  7. Format settings, CABAC                   : Yes
  8. Format settings, Reference frames        : 4 frames
  9. Codec ID                                 : V_MPEG4/ISO/AVC
  10. Duration                                 : 59 min 0 s
  11. Bit rate                                 : 11.6 Mb/s
  12. Width                                    : 1 916 pixels
  13. Height                                   : 1 080 pixels
  14. Display aspect ratio                     : 16:9
  15. Frame rate mode                          : Constant
  16. Frame rate                               : 24.000 FPS
  17. Color space                              : YUV
  18. Chroma subsampling                       : 4:2:0
  19. Bit depth                                : 8 bits
  20. Scan type                                : Progressive
  21. Bits/(Pixel*Frame)                       : 0.233
  22. Stream size                              : 4.76 GiB (94%)
  23. Writing library                          : x264 core 157 r2935 545de2f
  24. Encoding settings                        : cabac=1 / ref=4 / deblock=1:-3:-3 / analyse=0x3:0x133 / me=umh / subme=10 / psy=1 / psy_rd=1.00:0.00 / mixed_ref=1 / me_range=32 / chroma_me=1 / trellis=2 / 8x8dct=1 / cqm=0 / deadzone=21,11 / fast_pskip=0 / chroma_qp_offset=-2 / threads=34 / lookahead_threads=8 / sliced_threads=0 / nr=0 / decimate=0 / interlaced=0 / bluray_compat=0 / constrained_intra=0 / bframes=16 / b_pyramid=2 / b_adapt=2 / b_bias=0 / direct=3 / weightb=1 / open_gop=0 / weightp=2 / keyint=240 / keyint_min=24 / scenecut=40 / intra_refresh=0 / rc_lookahead=60 / rc=crf / mbtree=0 / crf=17.8 / qcomp=0.60 / qpmin=0 / qpmax=69 / qpstep=4 / vbv_maxrate=62500 / vbv_bufsize=78125 / crf_max=0.0 / nal_hrd=none / filler=0 / ip_ratio=1.40 / pb_ratio=1.30 / aq=2:1.00
  25. Default                                  : Yes
  26. Forced                                   : No
  27. Color range                              : Limited
  28. Color primaries                          : BT.709
  29. Transfer characteristics                 : BT.709
  30. Matrix coefficients                      : BT.709
  31. Audio
  32. ID                                       : 2
  33. Format                                   : AC-3
  34. Format/Info                              : Audio Coding 3
  35. Commercial name                          : Dolby Digital
  36. Codec ID                                 : A_AC3
  37. Duration                                 : 59 min 0 s
  38. Bit rate mode                            : Constant
  39. Bit rate                                 : 640 kb/s
  40. Channel(s)                               : 6 channels
  41. Channel layout                           : L R C LFE Ls Rs
  42. Sampling rate                            : 48.0 kHz
  43. Frame rate                               : 31.250 FPS (1536 SPF)
  44. Compression mode                         : Lossy
  45. Stream size                              : 270 MiB (5%)
  46. Language                                 : English
  47. Service kind                             : Complete Main
  48. Default                                  : Yes
  49. Forced                                   : No
  50. Text #1
  51. ID                                       : 3
  52. Format                                   : UTF-8
  53. Codec ID                                 : S_TEXT/UTF8
  54. Codec ID/Info                            : UTF-8 Plain Text
  55. Duration                                 : 38 min 30 s
  56. Bit rate                                 : 6 b/s
  57. Count of elements                        : 51
  58. Stream size                              : 1.71 KiB (0%)
  59. Title                                    : English [non-English scenes]
  60. Language                                 : English
  61. Default                                  : Yes
  62. Forced                                   : No
  63. Text #2
  64. ID                                       : 4
  65. Format                                   : PGS
  66. Muxing mode                              : zlib
  67. Codec ID                                 : S_HDMV/PGS
  68. Codec ID/Info                            : Picture based subtitle format used on BDs/HD-DVDs
  69. Duration                                 : 47 min 51 s
  70. Bit rate                                 : 19.2 kb/s
  71. Count of elements                        : 864
  72. Stream size                              : 6.56 MiB (0%)
  73. Language                                 : Czech
  74. Default                                  : No
  75. Forced                                   : No
  76. Text #3
  77. ID                                       : 5
  78. Format                                   : PGS
  79. Muxing mode                              : zlib
  80. Codec ID                                 : S_HDMV/PGS
  81. Codec ID/Info                            : Picture based subtitle format used on BDs/HD-DVDs
  82. Duration                                 : 47 min 52 s
  83. Bit rate                                 : 18.5 kb/s
  84. Count of elements                        : 762
  85. Stream size                              : 6.34 MiB (0%)
  86. Language                                 : French
  87. Default                                  : No
  88. Forced                                   : No
  89. Text #4
  90. ID                                       : 6
  91. Format                                   : PGS
  92. Muxing mode                              : zlib
  93. Codec ID                                 : S_HDMV/PGS
  94. Codec ID/Info                            : Picture based subtitle format used on BDs/HD-DVDs
  95. Duration                                 : 47 min 52 s
  96. Bit rate                                 : 20.6 kb/s
  97. Count of elements                        : 864
  98. Stream size                              : 7.05 MiB (0%)
  99. Language                                 : German
  100. Default                                  : No
  101. Forced                                   : No
  102. Text #5
  103. ID                                       : 7
  104. Format                                   : PGS
  105. Muxing mode                              : zlib
  106. Codec ID                                 : S_HDMV/PGS
  107. Codec ID/Info                            : Picture based subtitle format used on BDs/HD-DVDs
  108. Duration                                 : 47 min 51 s
  109. Bit rate                                 : 20.6 kb/s
  110. Count of elements                        : 908
  111. Stream size                              : 7.05 MiB (0%)
  112. Language                                 : Italian
  113. Default                                  : No
  114. Forced                                   : No
  115. Text #6
  116. ID                                       : 8
  117. Format                                   : PGS
  118. Muxing mode                              : zlib
  119. Codec ID                                 : S_HDMV/PGS
  120. Codec ID/Info                            : Picture based subtitle format used on BDs/HD-DVDs
  121. Duration                                 : 55 min 10 s
  122. Bit rate                                 : 15.5 kb/s
  123. Count of elements                        : 816
  124. Stream size                              : 6.13 MiB (0%)
  125. Language                                 : Japanese
  126. Default                                  : No
  127. Forced                                   : No
  128. Text #7
  129. ID                                       : 9
  130. Format                                   : PGS
  131. Muxing mode                              : zlib
  132. Codec ID                                 : S_HDMV/PGS
  133. Codec ID/Info                            : Picture based subtitle format used on BDs/HD-DVDs
  134. Duration                                 : 47 min 51 s
  135. Bit rate                                 : 21.7 kb/s
  136. Count of elements                        : 876
  137. Stream size                              : 7.41 MiB (0%)
  138. Language                                 : Russian
  139. Default                                  : No
  140. Forced                                   : No
  141. Text #8
  142. ID                                       : 10
  143. Format                                   : PGS
  144. Muxing mode                              : zlib
  145. Codec ID                                 : S_HDMV/PGS
  146. Codec ID/Info                            : Picture based subtitle format used on BDs/HD-DVDs
  147. Duration                                 : 47 min 51 s
  148. Bit rate                                 : 20.6 kb/s
  149. Count of elements                        : 878
  150. Stream size                              : 7.06 MiB (0%)
  151. Language                                 : Spanish
  152. Default                                  : No
  153. Forced                                   : No
  154. Menu
  155. 00:00:00.000                             : en:Film Intro
  156. 00:03:34.792                             : en:Into the Wild
  157. 00:08:36.667                             : en:In the Beginning
  158. 00:12:50.208                             : en:Balme
  159. 00:17:08.625                             : en:Influence and Inspiration
  160. 00:20:22.833                             : en:Chads Gap
  161. 00:23:03.417                             : en:Big Things
  162. 00:27:21.375                             : en:X Games
  163. 00:30:11.292                             : en:Candide Invitational
  164. 00:34:43.208                             : en:The Injury
  165. 00:37:43.083                             : en:The Comeback
  166. 00:43:40.917                             : en:The Freeride World Tour
  167. 00:47:08.958                             : en:Riding with Candide and Friends
  168. 00:50:58.458                             : en:Bang Bang
  169. 00:55:54.458                             : en:Credits
复制代码






                                       
                                       

                                       
                                       
                                       




回复

使用道具 举报

懒得打字嘛,点击右侧快捷回复 【右侧内容,后台自定义】
您需要登录后才可以回帖 登录 | 立即加入

本版积分规则

Archiver|小黑屋| 蓝光电影网 |网站地图

Copyright © 2021 Comsenz Inc. Powered by 蓝光电影网

蓝光电影网

本站内容由用户自主分享和转载自互联网,转载目的在于传递更多信息,并不代表本网赞同其观点和对其真实性负责。

如有侵权、违反国家法律政策行为,请联系我们,我们会第一时间及时清除和处理!

举报反馈邮箱:[email protected]

快速回复 返回顶部 返回列表