找回密码

蓝光电影网

查看: 26|回复: 0

[剧情] 捉狂D.J. FM.1978.1080p.BluRay.REMUX.AVC.DTS-HD.MA.5.1-FGT 28.79GB

[复制链接]
蓝光币
515
发表于 2019-7-30 21:04:41 | 显示全部楼层 |阅读模式


◎译  名 捉狂D.J.
◎片  名 FM
◎年  代 1978
◎产  地 美国
◎类  别 剧情 / 笑剧 / 歌舞
◎语  言 英语
◎上映日期 1978-08-14
◎IMDb评分  6.3/10 from 757 users
◎IMDb链接  http://www.imdb.com/title/tt0077532
◎豆瓣评分 0/10 from 0 users
◎豆瓣链接 https://movie.douban.com/subject/1300924/
◎片  长 104 分钟
◎导  演 约翰·A·阿朗索 John A. Alonzo
◎编  剧 Ezra Sacks
◎主  演 迈克尔·布兰登 Michael Brandon
      艾琳·布伦南 Eileen Brennan
      Alex Karras
      克力文·李托 Cleavon Little
      詹姆斯·基彻 James Keach

◎简  介  
  暂无相关剧情先容
  1. Video
  2. ID                                       : 1
  3. Format                                   : AVC
  4. Format/Info                              : Advanced Video Codec
  5. Format profile                           : [email protected]
  6. Format settings                          : CABAC / 3 Ref Frames
  7. Format settings, CABAC                   : Yes
  8. Format settings, Reference frames        : 3 frames
  9. Codec ID                                 : V_MPEG4/ISO/AVC
  10. Duration                                 : 1 h 44 min
  11. Bit rate mode                            : Variable
  12. Bit rate                                 : 33.0 Mb/s
  13. Maximum bit rate                         : 36.0 Mb/s
  14. Width                                    : 1 920 pixels
  15. Height                                   : 1 080 pixels
  16. Display aspect ratio                     : 16:9
  17. Frame rate mode                          : Constant
  18. Frame rate                               : 23.976 (24000/1001) FPS
  19. Color space                              : YUV
  20. Chroma subsampling                       : 4:2:0
  21. Bit depth                                : 8 bits
  22. Scan type                                : Progressive
  23. Bits/(Pixel*Frame)                       : 0.664
  24. Stream size                              : 24.0 GiB (84%)
  25. Title                                    : FM.1978.1080p.BluRay.REMUX.AVC.DTS-HD.MA.5.1-FGT
  26. Writing library                          : x264 core 157 r2935 545de2f
  27. Encoding settings                        : cabac=1 / ref=4 / deblock=1:0:0 / analyse=0x3:0x133 / me=umh / subme=10 / psy=1 / psy_rd=1.00:0.00 / mixed_ref=1 / me_range=24 / chroma_me=1 / trellis=2 / 8x8dct=1 / cqm=0 / deadzone=21,11 / fast_pskip=1 / chroma_qp_offset=-2 / threads=12 / lookahead_threads=1 / sliced_threads=0 / slices=4 / nr=0 / decimate=1 / interlaced=0 / bluray_compat=1 / constrained_intra=0 / bframes=3 / b_pyramid=1 / b_adapt=2 / b_bias=0 / direct=3 / weightb=1 / open_gop=1 / weightp=1 / keyint=24 / keyint_min=1 / scenecut=40 / intra_refresh=0 / rc_lookahead=24 / rc=2pass / mbtree=1 / bitrate=33000 / ratetol=0.1 / qcomp=0.90 / qpmin=1 / qpmax=69 / qpstep=4 / cplxblur=20.0 / qblur=0.5 / vbv_maxrate=36000 / vbv_bufsize=30000 / nal_hrd=vbr / filler=0 / ip_ratio=1.40 / aq=1:1.00
  28. Language                                 : English
  29. Default                                  : No
  30. Forced                                   : No
  31. Color range                              : Limited
  32. Color primaries                          : BT.709
  33. Transfer characteristics                 : BT.709
  34. Matrix coefficients                      : BT.709
  35. Audio #1
  36. ID                                       : 2
  37. Format                                   : DTS XLL
  38. Format/Info                              : Digital Theater Systems
  39. Commercial name                          : DTS-HD Master Audio
  40. Codec ID                                 : A_DTS
  41. Duration                                 : 1 h 44 min
  42. Bit rate mode                            : Variable
  43. Bit rate                                 : 3 872 kb/s
  44. Channel(s)                               : 6 channels
  45. Channel layout                           : C L R Ls Rs LFE
  46. Sampling rate                            : 48.0 kHz
  47. Frame rate                               : 93.750 FPS (512 SPF)
  48. Bit depth                                : 24 bits
  49. Compression mode                         : Lossless
  50. Stream size                              : 2.82 GiB (10%)
  51. Title                                    : FM.1978.1080p.BluRay.REMUX.AVC.DTS-HD.MA.5.1-FGT
  52. Language                                 : English
  53. Default                                  : Yes
  54. Forced                                   : No
  55. Audio #2
  56. ID                                       : 3
  57. Format                                   : PCM
  58. Format settings                          : Little / Signed
  59. Codec ID                                 : A_PCM/INT/LIT
  60. Duration                                 : 1 h 44 min
  61. Bit rate mode                            : Constant
  62. Bit rate                                 : 2 304 kb/s
  63. Channel(s)                               : 2 channels
  64. Sampling rate                            : 48.0 kHz
  65. Frame rate                               : 30.000 FPS (1600 SPF)
  66. Bit depth                                : 24 bits
  67. Stream size                              : 1.68 GiB (6%)
  68. Title                                    : FM.1978.1080p.BluRay.REMUX.AVC.DTS-HD.MA.5.1-FGT
  69. Language                                 : English
  70. Default                                  : No
  71. Forced                                   : No
  72. Audio #3
  73. ID                                       : 4
  74. Format                                   : AC-3
  75. Format/Info                              : Audio Coding 3
  76. Commercial name                          : Dolby Digital
  77. Codec ID                                 : A_AC3
  78. Duration                                 : 1 h 44 min
  79. Bit rate mode                            : Constant
  80. Bit rate                                 : 320 kb/s
  81. Channel(s)                               : 2 channels
  82. Channel layout                           : L R
  83. Sampling rate                            : 48.0 kHz
  84. Frame rate                               : 31.250 FPS (1536 SPF)
  85. Bit depth                                : 16 bits
  86. Compression mode                         : Lossy
  87. Stream size                              : 239 MiB (1%)
  88. Title                                    : FM.1978.1080p.BluRay.REMUX.AVC.DTS-HD.MA.5.1-FGT
  89. Language                                 : English
  90. Service kind                             : Complete Main
  91. Default                                  : No
  92. Forced                                   : No
  93. Text
  94. ID                                       : 5
  95. Format                                   : PGS
  96. Muxing mode                              : zlib
  97. Codec ID                                 : S_HDMV/PGS
  98. Codec ID/Info                            : Picture based subtitle format used on BDs/HD-DVDs
  99. Duration                                 : 1 h 43 min
  100. Bit rate                                 : 40.6 kb/s
  101. Count of elements                        : 2902
  102. Stream size                              : 30.0 MiB (0%)
  103. Title                                    : English-PGS
  104. Language                                 : English
  105. Default                                  : Yes
  106. Forced                                   : No
  107. Menu
  108. 00:00:00.000                             : en:Chapter 01
  109. 00:09:32.738                             : en:Chapter 02
  110. 00:18:16.720                             : en:Chapter 03
  111. 00:24:58.663                             : en:Chapter 04
  112. 00:35:02.767                             : en:Chapter 05
  113. 00:44:24.620                             : en:Chapter 06
  114. 00:49:52.614                             : en:Chapter 07
  115. 01:01:02.575                             : en:Chapter 08
  116. 01:10:09.747                             : en:Chapter 09
  117. 01:18:41.466                             : en:Chapter 10
  118. 01:26:57.545                             : en:Chapter 11
  119. 01:34:59.026                             : en:Chapter 12
复制代码






                                       
                                       

                                       
                                       
                                       




回复

使用道具 举报

懒得打字嘛,点击右侧快捷回复 【右侧内容,后台自定义】
您需要登录后才可以回帖 登录 | 立即加入

本版积分规则

Archiver|小黑屋| 蓝光电影网 |网站地图

Copyright © 2021 Comsenz Inc. Powered by 蓝光电影网

蓝光电影网

本站内容由用户自主分享和转载自互联网,转载目的在于传递更多信息,并不代表本网赞同其观点和对其真实性负责。

如有侵权、违反国家法律政策行为,请联系我们,我们会第一时间及时清除和处理!

举报反馈邮箱:[email protected]

快速回复 返回顶部 返回列表