找回密码

蓝光电影网

查看: 20|回复: 0

[剧情] 媒体先锋 The.Paper.1994.1080p.BluRay.REMUX.AVC.DTS-HD.MA.5.1-FGT 13.30GB

[复制链接]
蓝光币
519
发表于 2019-7-30 08:59:58 | 显示全部楼层 |阅读模式


◎译  名 媒体先锋
◎片  名 The Paper
◎年  代 1994
◎产  地 美国
◎类  别 剧情 / 笑剧
◎语  言 英语
◎上映日期 1994-03-18
◎IMDb评分  6.6/10 from 12084 users
◎IMDb链接  http://www.imdb.com/title/tt0110771
◎豆瓣评分 7.7/10 from 231 users
◎豆瓣链接 https://movie.douban.com/subject/1294367/
◎片  长 112 分钟
◎导  演 朗·霍华德 Ron Howard
◎编  剧 大卫·凯普 David Koepp / Stephen Koepp
◎主  演 迈克尔·基顿 Michael Keaton
      罗伯特·杜瓦尔 Robert Duvall
      格伦·克洛斯 Glenn Close
      玛丽莎·托梅 Marisa Tomei

◎标  签 消息 | 美国电影 | 美国 | 1994 | 剧情 | 笑剧 | 媒体 | 电影
◎简  介  
  编辑亨利的妻子玛萨已经怀孕而且产期邻近,假如他能从《纽约太阳报》调到《前哨》报工作,够将能获得更多的薪水,在办公室召开的会议上,哈克特请求预会者深入探讨两名白人贩子的谋杀案,此手两名无辜的黑人青年已被看成怀疑犯被捕。哈克特去《前哨》报口试后,哈克特又在报纸头版头条刊登黑人青年被捕的消息。当《前哨》的编辑晓得了哈克特的战略以后,愤慨地发出了对他的招聘。玛萨查阅了自己在城市贸易区熟人的关系,看见在连续串破产的银行投资者名单上有个黑手党徒的名字。哈克特得知这一情报后从一位差人那边证实了那两名黑人青年的被捕纯属差人局为装门面而对付了事。哈克特赶回报社,改登了两名黑人青年纯属无辜的大字消息,经过一番挫折,第二天终究登出,《纽约太阳报》第一次被抢购一空。
◎获奖情况  
  第67届奥斯卡金像奖(1995)
  最好原创歌曲(提名) 兰迪·纽曼

  1. Video
  2. ID                                       : 1
  3. Format                                   : AVC
  4. Format/Info                              : Advanced Video Codec
  5. Format profile                           : [email protected]
  6. Format settings                          : CABAC / 4 Ref Frames
  7. Format settings, CABAC                   : Yes
  8. Format settings, Reference frames        : 4 frames
  9. Codec ID                                 : V_MPEG4/ISO/AVC
  10. Duration                                 : 1 h 51 min
  11. Bit rate mode                            : Variable
  12. Bit rate                                 : 15.0 Mb/s
  13. Maximum bit rate                         : 30.0 Mb/s
  14. Width                                    : 1 920 pixels
  15. Height                                   : 1 080 pixels
  16. Display aspect ratio                     : 16:9
  17. Frame rate mode                          : Constant
  18. Frame rate                               : 23.976 (24000/1001) FPS
  19. Standard                                 : Component
  20. Color space                              : YUV
  21. Chroma subsampling                       : 4:2:0
  22. Bit depth                                : 8 bits
  23. Scan type                                : Progressive
  24. Bits/(Pixel*Frame)                       : 0.302
  25. Stream size                              : 11.7 GiB (88%)
  26. Title                                    : The.Paper.1994.1080p.BluRay.REMUX.AVC.DTS-HD.MA.5.1-FGT
  27. Writing library                          : x264 core 148
  28. Encoding settings                        : cabac=1 / ref=4 / deblock=1:0:0 / analyse=0x3:0x133 / me=umh / subme=9 / psy=1 / psy_rd=1.00:0.00 / mixed_ref=1 / me_range=24 / chroma_me=1 / trellis=2 / 8x8dct=1 / cqm=1 / deadzone=21,11 / fast_pskip=1 / chroma_qp_offset=-2 / threads=34 / lookahead_threads=2 / sliced_threads=0 / slices=4 / nr=0 / decimate=1 / interlaced=0 / minigop=1 / stitchable=1 / constrained_intra=0 / bframes=2 / b_pyramid=0 / b_adapt=2 / b_bias=0 / direct=3 / weightb=1 / open_gop=1 / weightp=1 / keyint=24 / keyint_min=1 / scenecut=40 / intra_refresh=0 / rc_lookahead=24 / rc=2pass / mbtree=1 / bitrate=15000 / ratetol=1.0 / qcomp=0.60 / qpmin=3 / qpmax=69 / qpstep=4 / cplxblur=20.0 / qblur=0.5 / vbv_maxrate=30000 / vbv_bufsize=30000 / nal_hrd=vbr / filler=0 / ip_ratio=1.40 / aq=1:1.00
  29. Language                                 : English
  30. Default                                  : No
  31. Forced                                   : No
  32. Color range                              : Limited
  33. Color primaries                          : BT.709
  34. Transfer characteristics                 : BT.709
  35. Matrix coefficients                      : BT.709
  36. Audio
  37. ID                                       : 2
  38. Format                                   : DTS XLL
  39. Format/Info                              : Digital Theater Systems
  40. Commercial name                          : DTS-HD Master Audio
  41. Codec ID                                 : A_DTS
  42. Duration                                 : 1 h 51 min
  43. Bit rate mode                            : Variable
  44. Bit rate                                 : 2 078 kb/s
  45. Channel(s)                               : 6 channels
  46. Channel layout                           : C L R Ls Rs LFE
  47. Sampling rate                            : 48.0 kHz
  48. Frame rate                               : 93.750 FPS (512 SPF)
  49. Bit depth                                : 16 bits
  50. Compression mode                         : Lossless
  51. Stream size                              : 1.62 GiB (12%)
  52. Title                                    : The.Paper.1994.1080p.BluRay.REMUX.AVC.DTS-HD.MA.5.1-FGT
  53. Language                                 : English
  54. Default                                  : Yes
  55. Forced                                   : No
  56. Text
  57. ID                                       : 3
  58. Format                                   : PGS
  59. Muxing mode                              : zlib
  60. Codec ID                                 : S_HDMV/PGS
  61. Codec ID/Info                            : Picture based subtitle format used on BDs/HD-DVDs
  62. Duration                                 : 1 h 48 min
  63. Bit rate                                 : 66.7 kb/s
  64. Count of elements                        : 4538
  65. Stream size                              : 51.9 MiB (0%)
  66. Title                                    : English-PGS
  67. Language                                 : English
  68. Default                                  : Yes
  69. Forced                                   : No
  70. Menu
  71. 00:00:00.000                             : en:Chapter 01
  72. 00:06:15.583                             : en:Chapter 02
  73. 00:16:18.644                             : en:Chapter 03
  74. 00:22:53.538                             : en:Chapter 04
  75. 00:28:18.947                             : en:Chapter 05
  76. 00:35:33.381                             : en:Chapter 06
  77. 00:52:01.326                             : en:Chapter 07
  78. 01:01:12.126                             : en:Chapter 08
  79. 01:05:36.098                             : en:Chapter 09
  80. 01:12:16.206                             : en:Chapter 10
  81. 01:15:06.502                             : en:Chapter 11
  82. 01:20:17.562                             : en:Chapter 12
  83. 01:23:20.120                             : en:Chapter 13
  84. 01:32:48.437                             : en:Chapter 14
  85. 01:41:41.970                             : en:Chapter 15
  86. 01:46:45.524                             : en:Chapter 16
复制代码






                                       
                                       

                                       
                                       
                                       




回复

使用道具 举报

懒得打字嘛,点击右侧快捷回复 【右侧内容,后台自定义】
您需要登录后才可以回帖 登录 | 立即加入

本版积分规则

Archiver|小黑屋| 蓝光电影网 |网站地图

Copyright © 2021 Comsenz Inc. Powered by 蓝光电影网

蓝光电影网

本站内容由用户自主分享和转载自互联网,转载目的在于传递更多信息,并不代表本网赞同其观点和对其真实性负责。

如有侵权、违反国家法律政策行为,请联系我们,我们会第一时间及时清除和处理!

举报反馈邮箱:[email protected]

快速回复 返回顶部 返回列表