找回密码

蓝光电影网

查看: 29|回复: 0

[喜剧] 爱的艺术/良缘巧遇 The.Art.of.Love.1965.1080p.BluRay.x264-HANDJOB 8.27GB

[复制链接]
蓝光币
515
发表于 2020-11-28 08:54:25 | 显示全部楼层 |阅读模式


◎译  名 爱的艺术/良缘巧遇
◎片  名 The Art of Love
◎年  代 1965
◎产  地 美国
◎类  别 笑剧
◎语  言 英语,法语
◎上映日期 1965
◎IMDb评分  6.2/10 from 589 users
◎IMDb链接  https://www.imdb.com/title/tt0058920/
◎豆瓣评分 /10 from 0 users
◎豆瓣链接 https://movie.douban.com/subject/5058182/
◎片  长 99 分钟
◎导  演 诺曼·杰威森 Norman Jewison
◎编  剧 理查德·艾伦·西蒙斯 Richard Alan Simmons / 威廉·沙克海姆 William Sackheim / 卡尔·雷纳 Carl Reiner
◎主  演 詹姆斯·加纳 James Garner
       迪克·范·戴克 Dick Van Dyke
       艾尔克·萨默 Elke Sommer
       安吉·迪金森 Angie Dickinson
       埃塞尔·默尔曼 Ethel Merman
       Forbes Murray
       路易斯梅西埃 Louis Mercier
       皮埃尔·奥拉夫 Pierre Olaf
       保罗·普雷博伊斯特 Paul Préboist
       罗尔夫·塞丹 Rolfe Sedan
       Hal Taggart
       奥兰·索尔 Olan Soule
       娜奥米·史蒂文斯 Naomi Stevens
       Jay Novello
       南·马丁 Nan Martin
       莫里斯·马尔萨克 Maurice Marsac
       Brad Johnson
       高美以子 Miiko Taka
       卡尔·雷纳 Carl Reiner
       伦佐·切萨纳 Renzo Cesana
       利昂·贝拉斯科 Leon Belasco
       罗杰·C·卡梅尔 Roger C. Carmel
       让·德尔瓦尔 Jean Del Val
       马塞尔·希莱尔 Marcel Hillaire
       Irving Jacobson
       菲菲·德奥赛 Fifi D'Orsay
◎标  签 被轻忽的电影 | 诺曼·杰威森 | 美国电影 | 美国 | 笑剧 | 7.8 | 1965 | ***1/2
◎简  介


  暂无相关剧情先容
  1. Video
  2. ID                                       : 1
  3. Format                                   : AVC
  4. Format/Info                              : Advanced Video Codec
  5. Format profile                           : [email protected]
  6. Format settings                          : CABAC / 4 Ref Frames
  7. Format settings, CABAC                   : Yes
  8. Format settings, Reference frames        : 4 frames
  9. Codec ID                                 : V_MPEG4/ISO/AVC
  10. Duration                                 : 1 h 39 min
  11. Bit rate                                 : 11.7 Mb/s
  12. Width                                    : 1 920 pixels
  13. Height                                   : 1 036 pixels
  14. Display aspect ratio                     : 1.85:1
  15. Frame rate mode                          : Constant
  16. Frame rate                               : 23.976 (24000/1001/189150) FPS
  17. Color space                              : YUV
  18. Chroma subsampling                       : 4:2:0
  19. Bit depth                                : 8 bits
  20. Scan type                                : Progressive
  21. Bits/(Pixel*Frame)                       : 0.245
  22. Stream size                              : 8.11 GiB (98%)
  23. Writing library                          : x264 core 155 r2917 0a84d98
  24. Encoding settings                        : cabac=1 / ref=4 / deblock=1:-3:-3 / analyse=0x3:0x133 / me=umh / subme=10 / psy=1 / psy_rd=1.00:0.00 / mixed_ref=1 / me_range=32 / chroma_me=1 / trellis=2 / 8x8dct=1 / cqm=0 / deadzone=21,11 / fast_pskip=0 / chroma_qp_offset=-2 / threads=32 / lookahead_threads=8 / sliced_threads=0 / nr=0 / decimate=0 / interlaced=0 / bluray_compat=0 / constrained_intra=0 / bframes=16 / b_pyramid=2 / b_adapt=2 / b_bias=0 / direct=3 / weightb=1 / open_gop=0 / weightp=1 / keyint=240 / keyint_min=24 / scenecut=40 / intra_refresh=0 / rc_lookahead=60 / rc=crf / mbtree=0 / crf=20.2 / qcomp=0.60 / qpmin=0 / qpmax=69 / qpstep=4 / vbv_maxrate=62500 / vbv_bufsize=78125 / crf_max=0.0 / nal_hrd=none / filler=0 / ip_ratio=1.40 / pb_ratio=1.30 / aq=1:0.70
  25. Default                                  : Yes
  26. Forced                                   : No
  27. Color range                              : Limited
  28. Color primaries                          : BT.709
  29. Transfer characteristics                 : BT.709
  30. Matrix coefficients                      : BT.709
  31. Audio #1
  32. ID                                       : 2
  33. Format                                   : AAC LC
  34. Format/Info                              : Advanced Audio Codec Low Complexity
  35. Codec ID                                 : A_AAC-2
  36. Duration                                 : 1 h 39 min
  37. Bit rate                                 : 150 kb/s
  38. Channel(s)                               : 2 channels
  39. Channel layout                           : L R
  40. Sampling rate                            : 48.0 kHz
  41. Frame rate                               : 46.875 FPS (1024 SPF)
  42. Compression mode                         : Lossy
  43. Delay relative to video                  : 11 s 0 ms
  44. Stream size                              : 107 MiB (1%)
  45. Language                                 : English
  46. Default                                  : Yes
  47. Forced                                   : No
  48. Audio #2
  49. ID                                       : 3
  50. Format                                   : AAC LC
  51. Format/Info                              : Advanced Audio Codec Low Complexity
  52. Codec ID                                 : A_AAC-2
  53. Duration                                 : 1 h 39 min
  54. Bit rate                                 : 81.6 kb/s
  55. Channel(s)                               : 2 channels
  56. Channel layout                           : L R
  57. Sampling rate                            : 48.0 kHz
  58. Frame rate                               : 46.875 FPS (1024 SPF)
  59. Compression mode                         : Lossy
  60. Stream size                              : 57.8 MiB (1%)
  61. Title                                    : Commentary with Peter Tonguette
  62. Language                                 : English
  63. Default                                  : No
  64. Forced                                   : No
  65. Text
  66. ID                                       : 4
  67. Format                                   : UTF-8
  68. Codec ID                                 : S_TEXT/UTF8
  69. Codec ID/Info                            : UTF-8 Plain Text
  70. Duration                                 : 1 h 35 min
  71. Bit rate                                 : 72 b/s
  72. Count of elements                        : 1657
  73. Stream size                              : 50.4 KiB (0%)
  74. Language                                 : English
  75. Default                                  : No
  76. Forced                                   : No
  77. Menu
  78. 00:00:00.000                             : :Chapter 1
  79. 00:08:38.518                             : :Chapter 2
  80. 00:20:35.443                             : :Chapter 3
  81. 00:32:45.505                             : :Chapter 4
  82. 00:40:06.487                             : :Chapter 5
  83. 00:55:26.865                             : :Chapter 6
  84. 01:10:32.979                             : :Chapter 7
  85. 01:22:26.692                             : :Chapter 8
复制代码






                                       
                                       

                                       
                                       
                                       




回复

使用道具 举报

懒得打字嘛,点击右侧快捷回复 【右侧内容,后台自定义】
您需要登录后才可以回帖 登录 | 立即加入

本版积分规则

Archiver|小黑屋| 蓝光电影网 |网站地图

Copyright © 2021 Comsenz Inc. Powered by 蓝光电影网

蓝光电影网

本站内容由用户自主分享和转载自互联网,转载目的在于传递更多信息,并不代表本网赞同其观点和对其真实性负责。

如有侵权、违反国家法律政策行为,请联系我们,我们会第一时间及时清除和处理!

举报反馈邮箱:[email protected]

快速回复 返回顶部 返回列表