找回密码

蓝光电影网

查看: 17|回复: 0

[其他] 有人看我/怪客逞凶 Someones.Watching.Me.1978.1080p.BluRay.x264.DTS-FGT 8.83GB

[复制链接]
蓝光币
509
发表于 2020-9-27 10:15:51 | 显示全部楼层 |阅读模式


◎译  名 有人看我/怪客逞凶
◎片  名 Someone's Watching Me
◎年  代 1978
◎产  地 美国
◎类  别 悬疑 / 惊悚 / 可骇
◎语  言 英语
◎上映日期 1978-11-29
◎IMDb评分  6.6/10 from 3525 users
◎IMDb链接  https://www.imdb.com/title/tt0078295/
◎豆瓣评分 /10 from 0 users
◎豆瓣链接 https://movie.douban.com/subject/2287651/
◎片  长 97分钟
◎导  演 约翰·卡朋特 John Carpenter
◎编  剧 约翰·卡朋特 John Carpenter
◎主  演 劳伦·赫顿 Lauren Hutton
       大卫·伯尼 David Birney
       阿德里安娜·巴比欧 Adrienne Barbeau
◎标  签 美国 | 约翰·卡朋特 | 悬疑 | John_Carpenter | 惊悚 | JohnCarpenter | 美國 | 可骇
◎简  介


  B级片可骇大师约翰·卡朋特导演作品。一位女子遭到劈面高层修建的一位男人的窃看,精神已经接近解体边沿,她起头乞助差人并决议自己追捕这名男人的行迹。
  1. Video
  2. ID                                       : 1
  3. Format                                   : AVC
  4. Format/Info                              : Advanced Video Codec
  5. Format profile                           : [email protected]
  6. Format settings                          : CABAC / 4 Ref Frames
  7. Format settings, CABAC                   : Yes
  8. Format settings, ReFrames                : 4 frames
  9. Codec ID                                 : V_MPEG4/ISO/AVC
  10. Duration                                 : 1 h 37 min
  11. Bit rate                                 : 11.5 Mb/s
  12. Width                                    : 1 920 pixels
  13. Height                                   : 1 036 pixels
  14. Display aspect ratio                     : 1.85:1
  15. Frame rate mode                          : Constant
  16. Frame rate                               : 23.976 (24000/1001/189150) FPS
  17. Color space                              : YUV
  18. Chroma subsampling                       : 4:2:0
  19. Bit depth                                : 8 bits
  20. Scan type                                : Progressive
  21. Bits/(Pixel*Frame)                       : 0.241
  22. Stream size                              : 7.80 GiB (88%)
  23. Title                                    : Someones.Watching.Me.1978.1080p.BluRay.x264.DTS-FGT
  24. Writing library                          : x264 core 148 r2795M aaa9aa8
  25. Encoding settings                        : cabac=1 / ref=4 / deblock=1:-2:-2 / analyse=0x3:0x113 / me=umh / subme=9 / psy=1 / psy_rd=1.00:0.15 / mixed_ref=1 / me_range=16 / chroma_me=1 / trellis=2 / 8x8dct=1 / cqm=0 / deadzone=21,11 / fast_pskip=1 / chroma_qp_offset=-3 / threads=24 / lookahead_threads=3 / sliced_threads=0 / nr=0 / decimate=1 / interlaced=0 / bluray_compat=0 / constrained_intra=0 / bframes=3 / b_pyramid=2 / b_adapt=1 / b_bias=0 / direct=3 / weightb=1 / open_gop=0 / weightp=2 / keyint=250 / keyint_min=25 / scenecut=40 / intra_refresh=0 / rc_lookahead=50 / rc=2pass / mbtree=1 / bitrate=11500 / ratetol=1.0 / qcomp=0.60 / qpmin=0 / qpmax=69 / qpstep=4 / cplxblur=20.0 / qblur=0.5 / vbv_maxrate=31250 / vbv_bufsize=31250 / nal_hrd=none / filler=0 / ip_ratio=1.40 / aq=1:1.00
  26. Language                                 : English
  27. Default                                  : Yes
  28. Forced                                   : No
  29. Audio
  30. ID                                       : 2
  31. Format                                   : DTS
  32. Format/Info                              : Digital Theater Systems
  33. Codec ID                                 : A_DTS
  34. Duration                                 : 1 h 37 min
  35. Bit rate mode                            : Constant
  36. Bit rate                                 : 1 509 kb/s
  37. Channel(s)                               : 2 channels
  38. Channel positions                        : Front: L R
  39. Sampling rate                            : 48.0 kHz
  40. Frame rate                               : 93.750 FPS (512 SPF)
  41. Bit depth                                : 24 bits
  42. Compression mode                         : Lossy
  43. Stream size                              : 1.02 GiB (12%)
  44. Title                                    : Someones.Watching.Me.1978.1080p.BluRay.x264.DTS-FGT
  45. Language                                 : English
  46. Default                                  : No
  47. Forced                                   : No
  48. Text
  49. ID                                       : 3
  50. Format                                   : UTF-8
  51. Codec ID                                 : S_TEXT/UTF8
  52. Codec ID/Info                            : UTF-8 Plain Text
  53. Duration                                 : 1 h 34 min
  54. Bit rate                                 : 43 b/s
  55. Count of elements                        : 1071
  56. Stream size                              : 30.1 KiB (0%)
  57. Title                                    : English-SRT
  58. Language                                 : English
  59. Default                                  : Yes
  60. Forced                                   : No
  61. Menu
  62. 00:00:00.000                             : en:Chapter 01
  63. 00:06:49.700                             : en:Chapter 02
  64. 00:14:00.756                             : en:Chapter 03
  65. 00:23:03.632                             : en:Chapter 04
  66. 00:30:15.355                             : en:Chapter 05
  67. 00:36:29.812                             : en:Chapter 06
  68. 00:44:31.627                             : en:Chapter 07
  69. 00:58:03.146                             : en:Chapter 08
  70. 01:05:36.265                             : en:Chapter 09
  71. 01:11:51.473                             : en:Chapter 10
  72. 01:20:01.713                             : en:Chapter 11
  73. 01:36:15.436                             : en:Chapter 12
  74. 01:37:09.240                             : en:Chapter 13
复制代码





                                       
                                       

                                       
                                       
                                       




回复

使用道具 举报

懒得打字嘛,点击右侧快捷回复 【右侧内容,后台自定义】
您需要登录后才可以回帖 登录 | 立即加入

本版积分规则

Archiver|小黑屋| 蓝光电影网 |网站地图

Copyright © 2021 Comsenz Inc. Powered by 蓝光电影网

蓝光电影网

本站内容由用户自主分享和转载自互联网,转载目的在于传递更多信息,并不代表本网赞同其观点和对其真实性负责。

如有侵权、违反国家法律政策行为,请联系我们,我们会第一时间及时清除和处理!

举报反馈邮箱:[email protected]

快速回复 返回顶部 返回列表