找回密码

蓝光电影网

查看: 9|回复: 0

[其他] 女大法官金斯伯格/RBG:不恐龙大法官 RBG.2018.DOCU.1080p.BluRay.x264.DTS-HD.MA.5.1-FGT 7.61GB

[复制链接]
蓝光币
511
发表于 2020-9-27 10:00:56 | 显示全部楼层 |阅读模式


◎译  名 女大法官金斯伯格/RBG:不恐龙大法官(台)/Ruth Bader Ginsburg/大法官金斯伯格/挑机法官RBG(港)/鲁斯·巴德·金斯伯格
◎片  名 RBG
◎年  代 2018
◎产  地 美国
◎类  别 记载片 / 列传
◎语  言 英语
◎上映日期 2018-01-21(圣丹斯电影节)
◎IMDb评分  7.6/10 from 10992 users
◎IMDb链接  https://www.imdb.com/title/tt7689964/
◎豆瓣评分 9.3/10 from 22935 users
◎豆瓣链接 https://movie.douban.com/subject/27615467/
◎片  长 98分钟
◎导  演 朱莉·科昂 Julie Cohen / 贝齐·韦斯特 Betsy West / Julie Cohen
◎主  演 鲁斯·巴德·金斯伯格 Ruth Bader Ginsburg
       比尔·克林顿 Bill Clinton
       奥林·G·哈奇 Orrin G. Hatch
       拉什·林博 Rush Limbaugh
       安东宁·斯卡利亚 Antonin Scalia
       格洛丽亚·斯泰纳姆 Gloria Steinem
       妮娜·托滕贝格 Nina Totenberg
       乔治·W· 布什 George W. Bush
       巴拉克·奥巴马 Barack Obama
       唐纳德·特朗普 Donald Trump
       西奥多·奥尔森 Ted Olson
◎标  签 记载片 | 女性 | 列传 | 美国 | 法令 | 女权 | 平权 | 金斯伯格
◎简  介


  鲁斯·巴德·金斯伯格是美国联邦最高法院的第二位女性法官、第一位犹太裔女性法官,哥伦比亚法学院历史上第一位获得毕生教职(tenure)的女性,最高法院的自在派法官之一。影片报告了美国联邦最高法院有史以来第二位女性大法官鲁斯·巴德·金斯伯格的生平业绩。
◎获奖情况
  第91届奥斯卡金像奖 ?(2019)
  最好记载长片(提名) 朱莉·科昂?/?贝齐·韦斯特
  最好原创歌曲(提名) 戴安·沃伦
  
  第72届英国电影学院奖 ?(2019)
  电影奖最好记载片(提名)
  
  第28届MTV电影奖 ?(2019)
  MTV电影奖最好打架(提名) 鲁斯·巴德·金斯伯格
  MTV电影奖最好记载片(提名)
  
  第71届美国导演工会奖 ?(2019)
  最好记载片导演(提名) 朱莉·科昂?/?贝齐·韦斯特
  
  第30届美国制片野生会奖 ?(2019)
  最好记载片制片人奖(提名)
  
  第69届美国剪辑工会奖 ?(2019)
  记载片最好剪辑(提名)
  
  第90届美国国家批评协会奖 ?(2018)
  最好记载片
  
  第24届美国批评家挑选电影奖 ?(2019)
  最好歌曲(提名)
  
  第23届金卫星奖 ?(2019)
  电影部分最好记载片(提名)
  
  第17届华盛顿影评人协会奖 ?(2018)
  最好记载片(提名)
  华盛顿特区最好写照(提名)
  
  第31届芝加哥影评人协会奖 ?(2018)
  最好记载片(提名)
  
  第5届豆瓣电影年度榜单 ?(2018)
  评分最高的记载片(提名)
  1. Video
  2. ID                                       : 1
  3. Format                                   : AVC
  4. Format/Info                              : Advanced Video Codec
  5. Format profile                           : [email protected]
  6. Format settings                          : CABAC / 4 Ref Frames
  7. Format settings, CABAC                   : Yes
  8. Format settings, ReFrames                : 4 frames
  9. Codec ID                                 : V_MPEG4/ISO/AVC
  10. Duration                                 : 1 h 38 min
  11. Bit rate                                 : 8 049 kb/s
  12. Width                                    : 1 920 pixels
  13. Height                                   : 1 080 pixels
  14. Display aspect ratio                     : 16:9
  15. Frame rate mode                          : Constant
  16. Frame rate                               : 23.976 FPS
  17. Color space                              : YUV
  18. Chroma subsampling                       : 4:2:0
  19. Bit depth                                : 8 bits
  20. Scan type                                : Progressive
  21. Bits/(Pixel*Frame)                       : 0.162
  22. Stream size                              : 5.52 GiB (73%)
  23. Title                                    : RBG.2018.DOCU.1080p.BluRay.x264.DTS-HD.MA.5.1-FGT
  24. Writing library                          : x264 core 157 r2932 303c484
  25. Encoding settings                        : cabac=1 / ref=4 / deblock=1:0:0 / analyse=0x3:0x133 / me=umh / subme=7 / psy=1 / psy_rd=1.00:0.00 / mixed_ref=1 / me_range=16 / chroma_me=1 / trellis=2 / 8x8dct=1 / cqm=0 / deadzone=21,11 / fast_pskip=0 / chroma_qp_offset=-2 / threads=18 / lookahead_threads=3 / sliced_threads=0 / nr=0 / decimate=1 / interlaced=0 / bluray_compat=0 / constrained_intra=0 / bframes=3 / b_pyramid=2 / b_adapt=1 / b_bias=0 / direct=3 / weightb=1 / open_gop=0 / weightp=2 / keyint=250 / keyint_min=23 / scenecut=40 / intra_refresh=0 / rc_lookahead=50 / rc=2pass / mbtree=1 / bitrate=8049 / ratetol=1.0 / qcomp=0.60 / qpmin=0 / qpmax=69 / qpstep=4 / cplxblur=20.0 / qblur=0.5 / ip_ratio=1.40 / aq=1:1.00
  26. Language                                 : English
  27. Default                                  : Yes
  28. Forced                                   : No
  29. Audio
  30. ID                                       : 2
  31. Format                                   : DTS
  32. Format/Info                              : Digital Theater Systems
  33. Format profile                           : MA / Core
  34. Codec ID                                 : A_DTS
  35. Duration                                 : 1 h 38 min
  36. Bit rate mode                            : Variable / Constant
  37. Bit rate                                 : 2 946 kb/s / 1 509 kb/s
  38. Channel(s)                               : 6 channels
  39. Channel positions                        : Front: L C R, Side: L R, LFE
  40. Sampling rate                            : 48.0 kHz
  41. Frame rate                               : 93.750 FPS (512 SPF)
  42. Bit depth                                : 24 bits
  43. Compression mode                         : Lossless / Lossy
  44. Stream size                              : 2.02 GiB (27%)
  45. Title                                    : RBG.2018.DOCU.1080p.BluRay.x264.DTS-HD.MA.5.1-FGT
  46. Language                                 : English
  47. Default                                  : Yes
  48. Forced                                   : No
  49. Text #1
  50. ID                                       : 3
  51. Format                                   : UTF-8
  52. Codec ID                                 : S_TEXT/UTF8
  53. Codec ID/Info                            : UTF-8 Plain Text
  54. Duration                                 : 1 h 33 min
  55. Bit rate                                 : 89 b/s
  56. Count of elements                        : 1515
  57. Stream size                              : 61.6 KiB (0%)
  58. Title                                    : English-SRT
  59. Language                                 : English
  60. Default                                  : Yes
  61. Forced                                   : No
  62. Text #2
  63. ID                                       : 4
  64. Format                                   : PGS
  65. Muxing mode                              : zlib
  66. Codec ID                                 : S_HDMV/PGS
  67. Codec ID/Info                            : Picture based subtitle format used on BDs/HD-DVDs
  68. Duration                                 : 1 h 37 min
  69. Bit rate                                 : 99.3 kb/s
  70. Count of elements                        : 3234
  71. Stream size                              : 69.3 MiB (1%)
  72. Title                                    : English-PGS
  73. Language                                 : English
  74. Default                                  : No
  75. Forced                                   : No
  76. Text #3
  77. ID                                       : 5
  78. Format                                   : PGS
  79. Muxing mode                              : zlib
  80. Codec ID                                 : S_HDMV/PGS
  81. Codec ID/Info                            : Picture based subtitle format used on BDs/HD-DVDs
  82. Duration                                 : 1 h 37 min
  83. Bit rate                                 : 100 kb/s
  84. Count of elements                        : 3298
  85. Stream size                              : 69.6 MiB (1%)
  86. Title                                    : Spanish-PGS
  87. Language                                 : Spanish
  88. Default                                  : No
  89. Forced                                   : No
  90. Menu
  91. 00:00:00.000                             : en:00:00:00.000
  92. 00:04:05.245                             : en:00:04:05.245
  93. 00:11:57.383                             : en:00:11:57.383
  94. 00:17:12.865                             : en:00:17:12.865
  95. 00:22:31.892                             : en:00:22:31.892
  96. 00:30:10.934                             : en:00:30:10.934
  97. 00:35:27.083                             : en:00:35:27.083
  98. 00:42:21.664                             : en:00:42:21.664
  99. 00:49:07.820                             : en:00:49:07.820
  100. 00:53:40.884                             : en:00:53:40.884
  101. 00:59:27.856                             : en:00:59:27.856
  102. 01:06:38.912                             : en:01:06:38.912
  103. 01:11:49.847                             : en:01:11:49.847
  104. 01:18:35.127                             : en:01:18:35.127
  105. 01:24:10.337                             : en:01:24:10.337
  106. 01:29:51.636                             : en:01:29:51.636
复制代码






                                       
                                       

                                       
                                       
                                       




回复

使用道具 举报

懒得打字嘛,点击右侧快捷回复 【右侧内容,后台自定义】
您需要登录后才可以回帖 登录 | 立即加入

本版积分规则

Archiver|小黑屋| 蓝光电影网 |网站地图

Copyright © 2021 Comsenz Inc. Powered by 蓝光电影网

蓝光电影网

本站内容由用户自主分享和转载自互联网,转载目的在于传递更多信息,并不代表本网赞同其观点和对其真实性负责。

如有侵权、违反国家法律政策行为,请联系我们,我们会第一时间及时清除和处理!

举报反馈邮箱:[email protected]

快速回复 返回顶部 返回列表