找回密码

蓝光电影网

查看: 21|回复: 0

[剧情] 慕尼黑二十一小时 21.Hours.at.Munich.1976.1080p.BluRay.REMUX.AVC.DTS-HD.MA.2.0-FGT 16.28GB

[复制链接]
蓝光币
515
发表于 2019-7-30 06:00:46 | 显示全部楼层 |阅读模式


◎译  名 慕尼黑二十一小时
◎片  名 21 Hours at Munich
◎年  代 1976
◎产  地 美国
◎类  别 剧情 / 历史
◎语  言 英语
◎上映日期 1976-11-07
◎IMDb评分  6.4/10 from 814 users
◎IMDb链接  http://www.imdb.com/title/tt0074085
◎豆瓣评分 0/10 from 0 users
◎豆瓣链接 https://movie.douban.com/subject/1302464/
◎片  长 101分钟
◎导  演 威廉 格雷厄姆 (William A. Graham)
◎编  剧 爱德华·休姆 Edward Hume / 霍华德·法斯特 Howard Fast / Serge Groussard
◎主  演 威廉·霍尔登 William Holden Richard Basehart

◎标  签 慕尼黑21小时 | 记载片 | 慕尼黑 | 美国 | 可骇主义 | 记录 | 政治 | 威廉.荷顿
◎简  介  
  暂无相关剧情先容
  1. Video
  2. ID                                       : 1
  3. Format                                   : AVC
  4. Format/Info                              : Advanced Video Codec
  5. Format profile                           : [email protected]
  6. Format settings                          : CABAC / 4 Ref Frames
  7. Format settings, CABAC                   : Yes
  8. Format settings, Reference frames        : 4 frames
  9. Codec ID                                 : V_MPEG4/ISO/AVC
  10. Duration                                 : 1 h 41 min
  11. Bit rate mode                            : Variable
  12. Bit rate                                 : 21.5 Mb/s
  13. Maximum bit rate                         : 35.0 Mb/s
  14. Width                                    : 1 920 pixels
  15. Height                                   : 1 080 pixels
  16. Display aspect ratio                     : 16:9
  17. Frame rate mode                          : Constant
  18. Frame rate                               : 23.976 (24000/1001) FPS
  19. Standard                                 : Component
  20. Color space                              : YUV
  21. Chroma subsampling                       : 4:2:0
  22. Bit depth                                : 8 bits
  23. Scan type                                : Progressive
  24. Bits/(Pixel*Frame)                       : 0.432
  25. Stream size                              : 15.2 GiB (93%)
  26. Title                                    : 21.Hours.at.Munich.1976.1080p.BluRay.REMUX.AVC.DTS-HD.MA.2.0-FGT
  27. Writing library                          : x264 core 148
  28. Encoding settings                        : cabac=1 / ref=4 / deblock=1:0:0 / analyse=0x3:0x113 / me=hex / subme=7 / psy=1 / psy_rd=1.00:0.00 / mixed_ref=1 / me_range=16 / chroma_me=1 / trellis=1 / 8x8dct=1 / cqm=1 / deadzone=21,11 / fast_pskip=1 / chroma_qp_offset=-2 / threads=24 / lookahead_threads=4 / sliced_threads=0 / slices=4 / nr=0 / decimate=1 / interlaced=0 / minigop=1 / stitchable=1 / constrained_intra=0 / bframes=2 / b_pyramid=0 / b_adapt=1 / b_bias=0 / direct=1 / weightb=1 / open_gop=1 / weightp=1 / keyint=24 / keyint_min=1 / scenecut=40 / intra_refresh=0 / rc_lookahead=24 / rc=2pass / mbtree=1 / bitrate=21500 / ratetol=1.0 / qcomp=0.60 / qpmin=3 / qpmax=69 / qpstep=4 / cplxblur=20.0 / qblur=0.5 / vbv_maxrate=35000 / vbv_bufsize=30000 / nal_hrd=vbr / filler=0 / ip_ratio=1.40 / aq=1:1.00
  29. Language                                 : English
  30. Default                                  : No
  31. Forced                                   : No
  32. Color range                              : Limited
  33. Color primaries                          : BT.709
  34. Transfer characteristics                 : BT.709
  35. Matrix coefficients                      : BT.709
  36. Audio
  37. ID                                       : 2
  38. Format                                   : DTS XLL
  39. Format/Info                              : Digital Theater Systems
  40. Commercial name                          : DTS-HD Master Audio
  41. Codec ID                                 : A_DTS
  42. Duration                                 : 1 h 41 min
  43. Bit rate mode                            : Variable
  44. Bit rate                                 : 1 564 kb/s
  45. Channel(s)                               : 2 channels
  46. Channel layout                           : L R
  47. Sampling rate                            : 48.0 kHz
  48. Frame rate                               : 93.750 FPS (512 SPF)
  49. Bit depth                                : 16 bits
  50. Compression mode                         : Lossless
  51. Stream size                              : 1.10 GiB (7%)
  52. Title                                    : 21.Hours.at.Munich.1976.1080p.BluRay.REMUX.AVC.DTS-HD.MA.2.0-FGT
  53. Language                                 : English
  54. Default                                  : Yes
  55. Forced                                   : No
  56. Text
  57. ID                                       : 3
  58. Format                                   : UTF-8
  59. Codec ID                                 : S_TEXT/UTF8
  60. Codec ID/Info                            : UTF-8 Plain Text
  61. Duration                                 : 1 h 37 min
  62. Bit rate                                 : 43 b/s
  63. Count of elements                        : 802
  64. Stream size                              : 31.5 KiB (0%)
  65. Language                                 : English
  66. Default                                  : Yes
  67. Forced                                   : No
  68. Menu
  69. 00:00:00.000                             : en:Chapter 01
  70. 00:12:51.020                             : en:Chapter 02
  71. 00:27:26.102                             : en:Chapter 03
  72. 00:36:02.535                             : en:Chapter 04
  73. 00:46:55.479                             : en:Chapter 05
  74. 00:59:49.168                             : en:Chapter 06
  75. 01:11:20.901                             : en:Chapter 07
  76. 01:26:36.316                             : en:Chapter 08
复制代码






                                       
                                       

                                       
                                       
                                       




回复

使用道具 举报

懒得打字嘛,点击右侧快捷回复 【右侧内容,后台自定义】
您需要登录后才可以回帖 登录 | 立即加入

本版积分规则

Archiver|小黑屋| 蓝光电影网 |网站地图

Copyright © 2021 Comsenz Inc. Powered by 蓝光电影网

蓝光电影网

本站内容由用户自主分享和转载自互联网,转载目的在于传递更多信息,并不代表本网赞同其观点和对其真实性负责。

如有侵权、违反国家法律政策行为,请联系我们,我们会第一时间及时清除和处理!

举报反馈邮箱:[email protected]

快速回复 返回顶部 返回列表