找回密码

蓝光电影网

查看: 17|回复: 0

[动作] 尸者帝国 The.Empire.of.Corpses.2015.RERiP.1080p.BluRay.x264-SADPANDA 6.54GB

[复制链接]
蓝光币
511
发表于 2019-8-17 10:40:36 | 显示全部楼层 |阅读模式


◎译  名 尸者帝国 / Shisha no teikoku / The Empire of Corpses
◎片  名 屍者の帝国
◎年  代 2015
◎产  地 日本
◎类  别 行动 / 科幻 / 动画
◎语  言 日语
◎上映日期 2015-10-02
◎IMDb评分  6.0/10 from 830 users
◎IMDb链接  http://www.imdb.com/title/tt4235644
◎豆瓣评分 6.4/10 from 3643 users
◎豆瓣链接 https://movie.douban.com/subject/26271875/
◎片  长 120分钟
◎导  演 牧原亮太郎
◎编  剧 濑古浩司 Hiroshi Seko / 后藤绿 Got? Midori / 山本幸治 / 伊藤计划 Project Itoh
◎主  演 细谷佳正 Hosoya Yoshimasa
       村濑步 Ayumu Murase
       楠大典 Taiten Kusunoki
       花泽香菜 Kana Hanazawa
       山下大辉 Daiki Yamashita
       三木真一郎 Shinichir? Miki
       齐藤次郎 Saitou Jirou
       石井康嗣 K?ji Ishii
       桑岛法子 Houko Kuwashima
       武田幸史 Takeda Kouji
       高杉义充
       大塚明夫 Akio ?tsuka
       菅生隆之 Takayuki Sugo
       二又一成 Issei Futamata
       长谷川芳明 Hasegawa Yoshiaki
       堀井茶渡 Chad Horii
       广濑裕也 Yuya Hirose

◎标  签 动画 | 日本 | 科幻 | 戏院版 | 日本动画 | 伊藤计划 | 2015 | 动漫
◎简  介  
  故事发生在十九世纪末的伦敦,彼时对于尸身的研讨已经到达了极致,灭亡并非一切的终结,那些灵魂消失肉身却永存的人们被称为“尸者”,被视作廉价而又高效的劳动力。华生(细谷佳正 配音)是一位资历优异的医门生,他的好友Friday(村濑步 配音)死于横死,追随着好友生前的志愿,华生违反政府规定擅自将其制成尸者。
  华生的这一行为令他被卷入了名为“沃尔辛厄姆”的情报机构中,和Friday一路,他们踏上前往阿富汗的旅途寻觅《维克多手记》,手记的仆人是弗兰肯斯坦博士,手记中记录了制造具成心识的尸者The One的方式,现在朝最有能够具有手记者,是一位名叫卡拉马佐夫(三木真一郎 配音)的牧师。
  1. Video
  2. ID                                       : 1
  3. Format                                   : AVC
  4. Format/Info                              : Advanced Video Codec
  5. Format profile                           : [email protected]
  6. Format settings, CABAC                   : Yes
  7. Format settings, ReFrames                : 4 frames
  8. Codec ID                                 : V_MPEG4/ISO/AVC
  9. Duration                                 : 2h 6mn
  10. Bit rate                                 : 6 117 Kbps
  11. Width                                    : 1 920 pixels
  12. Height                                   : 1 080 pixels
  13. Display aspect ratio                     : 16:9
  14. Frame rate mode                          : Constant
  15. Frame rate                               : 23.976 (24000/1001) fps
  16. Color space                              : YUV
  17. Chroma subsampling                       : 4:2:0
  18. Bit depth                                : 8 bits
  19. Scan type                                : Progressive
  20. Bits/(Pixel*Frame)                       : 0.123
  21. Stream size                              : 5.39 GiB (83%)
  22. Writing library                          : x264 core 148 r2744 b97ae06
  23. Encoding settings                        : cabac=1 / ref=4 / deblock=1:1:1 / analyse=0x3:0x113 / me=umh / subme=8 / psy=1 / psy_rd=0.40:0.00 / mixed_ref=1 / me_range=24 / chroma_me=1 / trellis=1 / 8x8dct=1 / cqm=0 / deadzone=21,11 / fast_pskip=1 / chroma_qp_offset=-2 / threads=24 / lookahead_threads=4 / sliced_threads=0 / nr=0 / decimate=1 / interlaced=0 / bluray_compat=0 / constrained_intra=0 / bframes=5 / b_pyramid=2 / b_adapt=1 / b_bias=0 / direct=3 / weightb=1 / open_gop=0 / weightp=2 / keyint=240 / keyint_min=24 / scenecut=40 / intra_refresh=0 / rc_lookahead=50 / rc=2pass / mbtree=1 / bitrate=6117 / ratetol=1.0 / qcomp=0.60 / qpmin=0 / qpmax=69 / qpstep=4 / cplxblur=20.0 / qblur=0.5 / ip_ratio=1.40 / aq=1:0.60
  24. Default                                  : Yes
  25. Forced                                   : No

  26. Audio #1
  27. ID                                       : 2
  28. Format                                   : AC-3
  29. Format/Info                              : Audio Coding 3
  30. Mode extension                           : CM (complete main)
  31. Format settings, Endianness              : Big
  32. Codec ID                                 : A_AC3
  33. Duration                                 : 2h 6mn
  34. Bit rate mode                            : Constant
  35. Bit rate                                 : 640 Kbps
  36. Channel(s)                               : 6 channels
  37. Channel positions                        : Front: L C R, Side: L R, LFE
  38. Sampling rate                            : 48.0 KHz
  39. Frame rate                               : 31.250 fps (1536 spf)
  40. Compression mode                         : Lossy
  41. Stream size                              : 580 MiB (9%)
  42. Language                                 : Japanese
  43. Default                                  : Yes
  44. Forced                                   : No

  45. Audio #2
  46. ID                                       : 3
  47. Format                                   : AC-3
  48. Format/Info                              : Audio Coding 3
  49. Mode extension                           : CM (complete main)
  50. Format settings, Endianness              : Big
  51. Codec ID                                 : A_AC3
  52. Duration                                 : 2h 6mn
  53. Bit rate mode                            : Constant
  54. Bit rate                                 : 640 Kbps
  55. Channel(s)                               : 6 channels
  56. Channel positions                        : Front: L C R, Side: L R, LFE
  57. Sampling rate                            : 48.0 KHz
  58. Frame rate                               : 31.250 fps (1536 spf)
  59. Compression mode                         : Lossy
  60. Stream size                              : 580 MiB (9%)
  61. Language                                 : English
  62. Default                                  : No
  63. Forced                                   : No

  64. Text #1
  65. ID                                       : 4
  66. Format                                   : UTF-8
  67. Codec ID                                 : S_TEXT/UTF8
  68. Codec ID/Info                            : UTF-8 Plain Text
  69. Duration                                 : 1h 59mn
  70. Bit rate                                 : 43 bps
  71. Count of elements                        : 1076
  72. Stream size                              : 38.1 KiB (0%)
  73. Title                                    : Full subs for Japanese audio
  74. Language                                 : English
  75. Default                                  : Yes
  76. Forced                                   : No

  77. Text #2
  78. ID                                       : 5
  79. Format                                   : UTF-8
  80. Codec ID                                 : S_TEXT/UTF8
  81. Codec ID/Info                            : UTF-8 Plain Text
  82. Duration                                 : 1h 58mn
  83. Bit rate                                 : 0 bps
  84. Count of elements                        : 28
  85. Stream size                              : 868 Bytes (0%)
  86. Title                                    : Forced subs for English audio
  87. Language                                 : English
  88. Default                                  : No
  89. Forced                                   : No

  90. Menu
  91. 00:00:00.000                             : en:00:00:00.000
  92. 00:08:26.256                             : en:00:08:26.256
  93. 00:19:57.154                             : en:00:19:57.154
  94. 00:30:33.832                             : en:00:30:33.832
  95. 00:38:11.206                             : en:00:38:11.206
  96. 00:45:15.671                             : en:00:45:15.671
  97. 00:53:29.915                             : en:00:53:29.915
  98. 01:00:39.094                             : en:01:00:39.094
  99. 01:07:25.041                             : en:01:07:25.041
  100. 01:12:41.274                             : en:01:12:41.274
  101. 01:20:15.519                             : en:01:20:15.519
  102. 01:27:20.485                             : en:01:27:20.485
  103. 01:37:13.286                             : en:01:37:13.286
  104. 01:47:06.337                             : en:01:47:06.337
  105. 01:52:04.968                             : en:01:52:04.968
  106. 02:06:33.544                             : en:02:06:33.544
复制代码




                                       
                                       

                                       
                                       
                                       




回复

使用道具 举报

懒得打字嘛,点击右侧快捷回复 【右侧内容,后台自定义】
您需要登录后才可以回帖 登录 | 立即加入

本版积分规则

Archiver|小黑屋| 蓝光电影网 |网站地图

Copyright © 2021 Comsenz Inc. Powered by 蓝光电影网

蓝光电影网

本站内容由用户自主分享和转载自互联网,转载目的在于传递更多信息,并不代表本网赞同其观点和对其真实性负责。

如有侵权、违反国家法律政策行为,请联系我们,我们会第一时间及时清除和处理!

举报反馈邮箱:[email protected]

快速回复 返回顶部 返回列表