找回密码

蓝光电影网

查看: 20|回复: 0

[剧情] 冒牌医生/心灵酷医 Mumford.1999.1080p.BluRay.REMUX.AVC.DTS-HD.MA.5.1-FGT 27.98GB

[复制链接]
蓝光币
511
发表于 2019-7-29 04:21:22 | 显示全部楼层 |阅读模式


◎译  名 冒牌医生 / 心灵酷医 / 曼福特医生
◎片  名 Mumford
◎年  代 1999
◎产  地 美国
◎类  别 剧情 / 笑剧
◎语  言 英语
◎上映日期 1999-09-24(美国)
◎IMDb评分  6.9/10 from 8528 users
◎IMDb链接  http://www.imdb.com/title/tt0140397
◎豆瓣评分 0/10 from 0 users
◎豆瓣链接 https://movie.douban.com/subject/1293987/
◎片  长 112分钟
◎导  演 劳伦斯·卡斯丹 Lawrence Kasdan
◎编  剧 劳伦斯·卡斯丹 Lawrence Kasdan
◎主  演 佐伊·丹斯切尔 Zooey Deschanel
      阿尔法·沃德 Alfre Woodard
      劳恩·迪恩 Loren Dean

◎标  签 心理征询 | 美国 | ZooeyDeschanel | 美国电影 | 心理 | 心理学 | HopeDavis | 剧情
◎简  介  
  在一座牛奶仍需在每个早上被递送的村落小镇,一个名叫曼福特(洛伦·迪安饰)的心理学者倾听着四周每小我的陈述。曼福特征格怪异,留着一头孩子发型,总戴着领带,待人温顺又率直。他向人们提的忠言即率直又平实,却总是能到达使人快慰的结果。“有些工具很叫人困惑,”他对一个病人说。当病人询问他所指何物时,他安静地回答:“生活。”
  1. Video
  2. ID                                       : 1
  3. Format                                   : AVC
  4. Format/Info                              : Advanced Video Codec
  5. Format profile                           : [email protected]
  6. Format settings                          : CABAC / 4 Ref Frames
  7. Format settings, CABAC                   : Yes
  8. Format settings, Reference frames        : 4 frames
  9. Codec ID                                 : V_MPEG4/ISO/AVC
  10. Duration                                 : 1 h 51 min
  11. Bit rate mode                            : Variable
  12. Bit rate                                 : 32.3 Mb/s
  13. Maximum bit rate                         : 36.0 Mb/s
  14. Width                                    : 1 920 pixels
  15. Height                                   : 1 080 pixels
  16. Display aspect ratio                     : 16:9
  17. Frame rate mode                          : Constant
  18. Frame rate                               : 23.976 (24000/1001) FPS
  19. Color space                              : YUV
  20. Chroma subsampling                       : 4:2:0
  21. Bit depth                                : 8 bits
  22. Scan type                                : Progressive
  23. Bits/(Pixel*Frame)                       : 0.649
  24. Stream size                              : 25.2 GiB (90%)
  25. Title                                    : Mumford.1999.1080p.BluRay.REMUX.AVC.DTS-HD.MA.5.1-FGT
  26. Language                                 : English
  27. Default                                  : No
  28. Forced                                   : No
  29. Audio #1
  30. ID                                       : 2
  31. Format                                   : DTS XLL
  32. Format/Info                              : Digital Theater Systems
  33. Commercial name                          : DTS-HD Master Audio
  34. Codec ID                                 : A_DTS
  35. Duration                                 : 1 h 51 min
  36. Bit rate mode                            : Variable
  37. Bit rate                                 : 2 010 kb/s
  38. Channel(s)                               : 6 channels
  39. Channel layout                           : C L R Ls Rs LFE
  40. Sampling rate                            : 48.0 kHz
  41. Frame rate                               : 93.750 FPS (512 SPF)
  42. Bit depth                                : 16 bits
  43. Compression mode                         : Lossless
  44. Stream size                              : 1.57 GiB (6%)
  45. Title                                    : Mumford.1999.1080p.BluRay.REMUX.AVC.DTS-HD.MA.5.1-FGT
  46. Language                                 : English
  47. Default                                  : Yes
  48. Forced                                   : No
  49. Audio #2
  50. ID                                       : 3
  51. Format                                   : DTS XLL
  52. Format/Info                              : Digital Theater Systems
  53. Commercial name                          : DTS-HD Master Audio
  54. Codec ID                                 : A_DTS
  55. Duration                                 : 1 h 51 min
  56. Bit rate mode                            : Variable
  57. Bit rate                                 : 1 558 kb/s
  58. Channel(s)                               : 2 channels
  59. Channel layout                           : L R
  60. Sampling rate                            : 48.0 kHz
  61. Frame rate                               : 93.750 FPS (512 SPF)
  62. Bit depth                                : 16 bits
  63. Compression mode                         : Lossless
  64. Stream size                              : 1.22 GiB (4%)
  65. Title                                    : Mumford.1999.1080p.BluRay.REMUX.AVC.DTS-HD.MA.5.1-FGT
  66. Language                                 : English
  67. Default                                  : No
  68. Forced                                   : No
  69. Text
  70. ID                                       : 4
  71. Format                                   : PGS
  72. Muxing mode                              : zlib
  73. Codec ID                                 : S_HDMV/PGS
  74. Codec ID/Info                            : Picture based subtitle format used on BDs/HD-DVDs
  75. Duration                                 : 1 h 50 min
  76. Bit rate                                 : 43.9 kb/s
  77. Count of elements                        : 1972
  78. Stream size                              : 34.7 MiB (0%)
  79. Title                                    : English-PGS
  80. Language                                 : English
  81. Default                                  : Yes
  82. Forced                                   : No
  83. Menu
  84. 00:00:00.000                             : en:Chapter 00
  85. 00:11:24.684                             : en:Chapter 01
  86. 00:24:14.035                             : en:Chapter 02
  87. 00:36:41.782                             : en:Chapter 03
  88. 00:51:13.820                             : en:Chapter 04
  89. 01:09:13.524                             : en:Chapter 05
  90. 01:21:34.931                             : en:Chapter 06
  91. 01:35:57.001                             : en:Chapter 07
复制代码






                                       
                                       

                                       
                                       
                                       




回复

使用道具 举报

懒得打字嘛,点击右侧快捷回复 【右侧内容,后台自定义】
您需要登录后才可以回帖 登录 | 立即加入

本版积分规则

Archiver|小黑屋| 蓝光电影网 |网站地图

Copyright © 2021 Comsenz Inc. Powered by 蓝光电影网

蓝光电影网

本站内容由用户自主分享和转载自互联网,转载目的在于传递更多信息,并不代表本网赞同其观点和对其真实性负责。

如有侵权、违反国家法律政策行为,请联系我们,我们会第一时间及时清除和处理!

举报反馈邮箱:[email protected]

快速回复 返回顶部 返回列表