找回密码

蓝光电影网

查看: 23|回复: 0

[剧情] 梦不邪恶 Dream.No.Evil.1970.1080p.BluRay.REMUX.AVC.LPCM.1.0-FGT 21.42GB

[复制链接]
蓝光币
515
发表于 2019-7-29 01:17:36 | 显示全部楼层 |阅读模式


◎译  名 梦不邪恶
◎片  名 Dream No Evil
◎年  代 1970
◎产  地 美国
◎类  别 剧情 / 悬疑 / 可骇
◎语  言 英语
◎上映日期 1970
◎IMDb评分  4.7/10 from 190 users
◎IMDb链接  http://www.imdb.com/title/tt0130637
◎豆瓣评分 0/10 from 0 users
◎豆瓣链接 https://movie.douban.com/subject/26678154/
◎片  长 84分钟
◎导  演 John Hayes
◎编  剧 John Hayes
◎简  介  
  暂无相关剧情先容
  1. Video
  2. ID                                       : 1
  3. Format                                   : AVC
  4. Format/Info                              : Advanced Video Codec
  5. Format profile                           : [email protected]
  6. Format settings                          : CABAC / 3 Ref Frames
  7. Format settings, CABAC                   : Yes
  8. Format settings, Reference frames        : 3 frames
  9. Codec ID                                 : V_MPEG4/ISO/AVC
  10. Duration                                 : 1 h 24 min
  11. Bit rate mode                            : Variable
  12. Bit rate                                 : 35.0 Mb/s
  13. Nominal bit rate                         : 3 000 kb/s
  14. Maximum bit rate                         : 38.0 Mb/s
  15. Width                                    : 1 920 pixels
  16. Height                                   : 1 080 pixels
  17. Display aspect ratio                     : 16:9
  18. Frame rate mode                          : Constant
  19. Frame rate                               : 23.976 (24000/1001) FPS
  20. Color space                              : YUV
  21. Chroma subsampling                       : 4:2:0
  22. Bit depth                                : 8 bits
  23. Scan type                                : Progressive
  24. Bits/(Pixel*Frame)                       : 0.703
  25. Stream size                              : 20.6 GiB (96%)
  26. Title                                    : Dream.No.Evil.1970.1080p.BluRay.REMUX.AVC.LPCM.1.0-FGT
  27. Encoding settings                        : cabac=1 / ref=4 / deblock=1:-1:-1 / analyse=0x3:0x133 / me=umh / subme=10 / psy=1 / psy_rd=1.00:0.15 / mixed_ref=1 / me_range=24 / chroma_me=1 / trellis=2 / 8x8dct=1 / cqm=0 / deadzone=21,11 / fast_pskip=1 / chroma_qp_offset=-3 / threads=12 / lookahead_threads=2 / sliced_threads=0 / slices=4 / nr=0 / decimate=1 / interlaced=0 / bluray_compat=1 / constrained_intra=0 / bframes=3 / b_pyramid=1 / b_adapt=2 / b_bias=0 / direct=3 / weightb=1 / open_gop=1 / weightp=1 / keyint=24 / keyint_min=1 / scenecut=40 / intra_refresh=0 / rc_lookahead=24 / rc=2pass / mbtree=1 / bitrate=3000 / ratetol=1.0 / qcomp=0.60 / qpmin=0 / qpmax=69 / qpstep=4 / cplxblur=20.0 / qblur=0.5 / vbv_maxrate=40000 / vbv_bufsize=30000 / nal_hrd=vbr / ip_ratio=1.40 / aq=1:1.00
  28. Language                                 : English
  29. Default                                  : No
  30. Forced                                   : No
  31. Color range                              : Limited
  32. Color primaries                          : BT.709
  33. Transfer characteristics                 : BT.709
  34. Matrix coefficients                      : BT.709
  35. Audio #1
  36. ID                                       : 2
  37. Format                                   : PCM
  38. Format settings                          : Little / Signed
  39. Codec ID                                 : A_PCM/INT/LIT
  40. Duration                                 : 1 h 24 min
  41. Bit rate mode                            : Constant
  42. Bit rate                                 : 1 152 kb/s
  43. Sampling rate                            : 48.0 kHz
  44. Frame rate                               : 30.000 FPS (1600 SPF)
  45. Bit depth                                : 24 bits
  46. Stream size                              : 696 MiB (3%)
  47. Title                                    : Dream.No.Evil.1970.1080p.BluRay.REMUX.AVC.LPCM.1.0-FGT
  48. Language                                 : English
  49. Default                                  : Yes
  50. Forced                                   : No
  51. Audio #2
  52. ID                                       : 3
  53. Format                                   : AC-3
  54. Format/Info                              : Audio Coding 3
  55. Commercial name                          : Dolby Digital
  56. Codec ID                                 : A_AC3
  57. Duration                                 : 1 h 24 min
  58. Bit rate mode                            : Constant
  59. Bit rate                                 : 192 kb/s
  60. Channel(s)                               : 2 channels
  61. Channel layout                           : L R
  62. Sampling rate                            : 48.0 kHz
  63. Frame rate                               : 31.250 FPS (1536 SPF)
  64. Bit depth                                : 16 bits
  65. Compression mode                         : Lossy
  66. Stream size                              : 116 MiB (1%)
  67. Title                                    : Dream.No.Evil.1970.1080p.BluRay.REMUX.AVC.LPCM.1.0-FGT
  68. Language                                 : English
  69. Service kind                             : Complete Main
  70. Default                                  : No
  71. Forced                                   : No
  72. Text
  73. ID                                       : 4
  74. Format                                   : PGS
  75. Muxing mode                              : zlib
  76. Codec ID                                 : S_HDMV/PGS
  77. Codec ID/Info                            : Picture based subtitle format used on BDs/HD-DVDs
  78. Duration                                 : 1 h 24 min
  79. Bit rate                                 : 27.4 kb/s
  80. Count of elements                        : 1636
  81. Stream size                              : 16.5 MiB (0%)
  82. Title                                    : English-PGS
  83. Language                                 : English
  84. Default                                  : Yes
  85. Forced                                   : No
  86. Menu
  87. 00:00:00.000                             : en:Chapter 01
  88. 00:06:34.102                             : en:Chapter 02
  89. 00:15:34.266                             : en:Chapter 03
  90. 00:23:46.383                             : en:Chapter 04
  91. 00:29:48.995                             : en:Chapter 05
  92. 00:34:41.162                             : en:Chapter 06
  93. 00:41:44.919                             : en:Chapter 07
  94. 00:50:24.104                             : en:Chapter 08
  95. 00:58:25.668                             : en:Chapter 09
  96. 01:04:06.300                             : en:Chapter 10
  97. 01:09:46.098                             : en:Chapter 11
  98. 01:16:41.513                             : en:Chapter 12
复制代码






                                       
                                       

                                       
                                       
                                       




回复

使用道具 举报

懒得打字嘛,点击右侧快捷回复 【右侧内容,后台自定义】
您需要登录后才可以回帖 登录 | 立即加入

本版积分规则

Archiver|小黑屋| 蓝光电影网 |网站地图

Copyright © 2021 Comsenz Inc. Powered by 蓝光电影网

蓝光电影网

本站内容由用户自主分享和转载自互联网,转载目的在于传递更多信息,并不代表本网赞同其观点和对其真实性负责。

如有侵权、违反国家法律政策行为,请联系我们,我们会第一时间及时清除和处理!

举报反馈邮箱:[email protected]

快速回复 返回顶部 返回列表