找回密码

蓝光电影网

查看: 24|回复: 0

[喜剧] 乐高DC蝙蝠侠:家族事务 LEGO.DC.Batman.Family.Matters.2019.1080p.BluRay.REMUX.AVC.DTS-HD.MA.5.1-FGT 13.43GB

[复制链接]
蓝光币
515
发表于 2019-7-28 12:13:52 | 显示全部楼层 |阅读模式


◎译  名 乐高DC蝙蝠侠:家属事务 / LEGO DC: Batman - Family Matters
◎片  名 LEGO DC  Batman: Family Matters
◎年  代 2019
◎产  地 美国
◎类  别 笑剧 / 动画 / 犯罪
◎语  言 英语
◎上映日期 2019-08-06(美国)
◎IMDb链接  http://www.imdb.com/title/tt10327712
◎豆瓣评分 0/10 from 0 users
◎豆瓣链接 https://movie.douban.com/subject/33447595/
◎导  演 Matt Peters
◎编  剧 杰瑞米·亚当斯 Jeremy Adams
◎主  演 特罗伊·贝克 Troy Baker
      史蒂夫·布卢姆 Steve Blum
      扎克·卡利森 Zach Callison
      拉尔夫·加曼 Ralph Garman
      Jake Green
      汤姆·肯尼 Tom Kenny
      斯科特·门维尔 Scott Menville
      诺兰·诺斯 Nolan North
      杰森·斯皮萨克 Jason Spisak
      艾莉森·斯通勒 Alyson Stoner
      塔拉·斯特朗 Tara Strong

◎标  签 DC | 动画 | LEGO | 美国 | 2019 | 漫画改编 | 笑剧 | 科幻
◎简  介  
  Batman, Robin and Batgirl must stick together even when Gotham’s most dangerous villains attempt to pull them apart in LEGO? DC: Batman – Family Matters, the latest animated adventure in the LEGO DC series. Produced by Warner Bros. Animation, DC Entertainment and the LEGO Group,
  1. Video
  2. ID                                       : 1
  3. Format                                   : AVC
  4. Format/Info                              : Advanced Video Codec
  5. Format profile                           : [email protected]
  6. Format settings                          : CABAC / 4 Ref Frames
  7. Format settings, CABAC                   : Yes
  8. Format settings, Reference frames        : 4 frames
  9. Format settings, GOP                     : M=1, N=12
  10. Codec ID                                 : V_MPEG4/ISO/AVC
  11. Duration                                 : 1 h 19 min
  12. Bit rate mode                            : Variable
  13. Bit rate                                 : 17.9 Mb/s
  14. Maximum bit rate                         : 39.0 Mb/s
  15. Width                                    : 1 920 pixels
  16. Height                                   : 1 080 pixels
  17. Display aspect ratio                     : 16:9
  18. Frame rate mode                          : Constant
  19. Frame rate                               : 23.976 (24000/1001) FPS
  20. Color space                              : YUV
  21. Chroma subsampling                       : 4:2:0
  22. Bit depth                                : 8 bits
  23. Scan type                                : Progressive
  24. Bits/(Pixel*Frame)                       : 0.361
  25. Stream size                              : 9.91 GiB (74%)
  26. Title                                    : LEGO.DC.Batman.Family.Matters.2019.1080p.BluRay.REMUX.AVC.DTS-HD.MA.5.1-FGT
  27. Language                                 : English
  28. Default                                  : No
  29. Forced                                   : No
  30. Audio #1
  31. ID                                       : 2
  32. Format                                   : DTS XLL
  33. Format/Info                              : Digital Theater Systems
  34. Commercial name                          : DTS-HD Master Audio
  35. Codec ID                                 : A_DTS
  36. Duration                                 : 1 h 19 min
  37. Bit rate mode                            : Variable
  38. Bit rate                                 : 2 443 kb/s
  39. Channel(s)                               : 6 channels
  40. Channel layout                           : C L R Ls Rs LFE
  41. Sampling rate                            : 48.0 kHz
  42. Frame rate                               : 93.750 FPS (512 SPF)
  43. Bit depth                                : 24 bits
  44. Compression mode                         : Lossless
  45. Stream size                              : 1.35 GiB (10%)
  46. Title                                    : LEGO.DC.Batman.Family.Matters.2019.1080p.BluRay.REMUX.AVC.DTS-HD.MA.5.1-FGT
  47. Language                                 : English
  48. Default                                  : Yes
  49. Forced                                   : No
  50. Audio #2
  51. ID                                       : 3
  52. Format                                   : AC-3
  53. Format/Info                              : Audio Coding 3
  54. Commercial name                          : Dolby Digital
  55. Codec ID                                 : A_AC3
  56. Duration                                 : 1 h 19 min
  57. Bit rate mode                            : Constant
  58. Bit rate                                 : 640 kb/s
  59. Channel(s)                               : 6 channels
  60. Channel layout                           : L R C LFE Ls Rs
  61. Sampling rate                            : 48.0 kHz
  62. Frame rate                               : 31.250 FPS (1536 SPF)
  63. Bit depth                                : 16 bits
  64. Compression mode                         : Lossy
  65. Stream size                              : 362 MiB (3%)
  66. Title                                    : LEGO.DC.Batman.Family.Matters.2019.1080p.BluRay.REMUX.AVC.DTS-HD.MA.5.1-FGT
  67. Language                                 : French
  68. Service kind                             : Complete Main
  69. Default                                  : No
  70. Forced                                   : No
  71. Audio #3
  72. ID                                       : 4
  73. Format                                   : AC-3
  74. Format/Info                              : Audio Coding 3
  75. Commercial name                          : Dolby Digital
  76. Codec ID                                 : A_AC3
  77. Duration                                 : 1 h 19 min
  78. Bit rate mode                            : Constant
  79. Bit rate                                 : 640 kb/s
  80. Channel(s)                               : 6 channels
  81. Channel layout                           : L R C LFE Ls Rs
  82. Sampling rate                            : 48.0 kHz
  83. Frame rate                               : 31.250 FPS (1536 SPF)
  84. Bit depth                                : 16 bits
  85. Compression mode                         : Lossy
  86. Stream size                              : 362 MiB (3%)
  87. Title                                    : LEGO.DC.Batman.Family.Matters.2019.1080p.BluRay.REMUX.AVC.DTS-HD.MA.5.1-FGT
  88. Language                                 : German
  89. Service kind                             : Complete Main
  90. Default                                  : No
  91. Forced                                   : No
  92. Audio #4
  93. ID                                       : 5
  94. Format                                   : AC-3
  95. Format/Info                              : Audio Coding 3
  96. Commercial name                          : Dolby Digital
  97. Codec ID                                 : A_AC3
  98. Duration                                 : 1 h 19 min
  99. Bit rate mode                            : Constant
  100. Bit rate                                 : 640 kb/s
  101. Channel(s)                               : 6 channels
  102. Channel layout                           : L R C LFE Ls Rs
  103. Sampling rate                            : 48.0 kHz
  104. Frame rate                               : 31.250 FPS (1536 SPF)
  105. Bit depth                                : 16 bits
  106. Compression mode                         : Lossy
  107. Stream size                              : 362 MiB (3%)
  108. Title                                    : LEGO.DC.Batman.Family.Matters.2019.1080p.BluRay.REMUX.AVC.DTS-HD.MA.5.1-FGT
  109. Language                                 : Danish
  110. Service kind                             : Complete Main
  111. Default                                  : No
  112. Forced                                   : No
  113. Audio #5
  114. ID                                       : 6
  115. Format                                   : AC-3
  116. Format/Info                              : Audio Coding 3
  117. Commercial name                          : Dolby Digital
  118. Codec ID                                 : A_AC3
  119. Duration                                 : 1 h 19 min
  120. Bit rate mode                            : Constant
  121. Bit rate                                 : 640 kb/s
  122. Channel(s)                               : 6 channels
  123. Channel layout                           : L R C LFE Ls Rs
  124. Sampling rate                            : 48.0 kHz
  125. Frame rate                               : 31.250 FPS (1536 SPF)
  126. Bit depth                                : 16 bits
  127. Compression mode                         : Lossy
  128. Stream size                              : 362 MiB (3%)
  129. Title                                    : LEGO.DC.Batman.Family.Matters.2019.1080p.BluRay.REMUX.AVC.DTS-HD.MA.5.1-FGT
  130. Language                                 : Finnish
  131. Service kind                             : Complete Main
  132. Default                                  : No
  133. Forced                                   : No
  134. Audio #6
  135. ID                                       : 7
  136. Format                                   : AC-3
  137. Format/Info                              : Audio Coding 3
  138. Commercial name                          : Dolby Digital
  139. Codec ID                                 : A_AC3
  140. Duration                                 : 1 h 19 min
  141. Bit rate mode                            : Constant
  142. Bit rate                                 : 640 kb/s
  143. Channel(s)                               : 6 channels
  144. Channel layout                           : L R C LFE Ls Rs
  145. Sampling rate                            : 48.0 kHz
  146. Frame rate                               : 31.250 FPS (1536 SPF)
  147. Bit depth                                : 16 bits
  148. Compression mode                         : Lossy
  149. Stream size                              : 362 MiB (3%)
  150. Title                                    : LEGO.DC.Batman.Family.Matters.2019.1080p.BluRay.REMUX.AVC.DTS-HD.MA.5.1-FGT
  151. Language                                 : Norwegian
  152. Service kind                             : Complete Main
  153. Default                                  : No
  154. Forced                                   : No
  155. Audio #7
  156. ID                                       : 8
  157. Format                                   : AC-3
  158. Format/Info                              : Audio Coding 3
  159. Commercial name                          : Dolby Digital
  160. Codec ID                                 : A_AC3
  161. Duration                                 : 1 h 19 min
  162. Bit rate mode                            : Constant
  163. Bit rate                                 : 640 kb/s
  164. Channel(s)                               : 6 channels
  165. Channel layout                           : L R C LFE Ls Rs
  166. Sampling rate                            : 48.0 kHz
  167. Frame rate                               : 31.250 FPS (1536 SPF)
  168. Bit depth                                : 16 bits
  169. Compression mode                         : Lossy
  170. Stream size                              : 362 MiB (3%)
  171. Title                                    : LEGO.DC.Batman.Family.Matters.2019.1080p.BluRay.REMUX.AVC.DTS-HD.MA.5.1-FGT
  172. Language                                 : Swedish
  173. Service kind                             : Complete Main
  174. Default                                  : No
  175. Forced                                   : No
  176. Text #1
  177. ID                                       : 9
  178. Format                                   : UTF-8
  179. Codec ID                                 : S_TEXT/UTF8
  180. Codec ID/Info                            : UTF-8 Plain Text
  181. Duration                                 : 1 h 15 min
  182. Bit rate                                 : 77 b/s
  183. Count of elements                        : 1438
  184. Stream size                              : 42.9 KiB (0%)
  185. Title                                    : English-SRT
  186. Language                                 : English
  187. Default                                  : Yes
  188. Forced                                   : No
  189. Text #2
  190. ID                                       : 10
  191. Format                                   : PGS
  192. Muxing mode                              : zlib
  193. Codec ID                                 : S_HDMV/PGS
  194. Codec ID/Info                            : Picture based subtitle format used on BDs/HD-DVDs
  195. Duration                                 : 1 h 15 min
  196. Bit rate                                 : 47.7 kb/s
  197. Count of elements                        : 2877
  198. Stream size                              : 25.8 MiB (0%)
  199. Title                                    : English-PGS
  200. Language                                 : English
  201. Default                                  : No
  202. Forced                                   : No
  203. Text #3
  204. ID                                       : 11
  205. Format                                   : PGS
  206. Muxing mode                              : zlib
  207. Codec ID                                 : S_HDMV/PGS
  208. Codec ID/Info                            : Picture based subtitle format used on BDs/HD-DVDs
  209. Duration                                 : 1 h 18 min
  210. Bit rate                                 : 40.2 kb/s
  211. Count of elements                        : 2398
  212. Stream size                              : 22.5 MiB (0%)
  213. Title                                    : French-PGS
  214. Language                                 : French
  215. Default                                  : No
  216. Forced                                   : No
  217. Text #4
  218. ID                                       : 12
  219. Format                                   : PGS
  220. Muxing mode                              : zlib
  221. Codec ID                                 : S_HDMV/PGS
  222. Codec ID/Info                            : Picture based subtitle format used on BDs/HD-DVDs
  223. Duration                                 : 1 h 15 min
  224. Bit rate                                 : 55.3 kb/s
  225. Count of elements                        : 2904
  226. Stream size                              : 29.9 MiB (0%)
  227. Title                                    : German-PGS
  228. Language                                 : German
  229. Default                                  : No
  230. Forced                                   : No
  231. Text #5
  232. ID                                       : 13
  233. Format                                   : PGS
  234. Muxing mode                              : zlib
  235. Codec ID                                 : S_HDMV/PGS
  236. Codec ID/Info                            : Picture based subtitle format used on BDs/HD-DVDs
  237. Duration                                 : 1 h 18 min
  238. Bit rate                                 : 40.3 kb/s
  239. Count of elements                        : 2395
  240. Stream size                              : 22.6 MiB (0%)
  241. Title                                    : Danish-PGS
  242. Language                                 : Danish
  243. Default                                  : No
  244. Forced                                   : No
  245. Text #6
  246. ID                                       : 14
  247. Format                                   : PGS
  248. Muxing mode                              : zlib
  249. Codec ID                                 : S_HDMV/PGS
  250. Codec ID/Info                            : Picture based subtitle format used on BDs/HD-DVDs
  251. Duration                                 : 1 h 18 min
  252. Bit rate                                 : 39.1 kb/s
  253. Count of elements                        : 2395
  254. Stream size                              : 21.9 MiB (0%)
  255. Title                                    : Finnish-PGS
  256. Language                                 : Finnish
  257. Default                                  : No
  258. Forced                                   : No
  259. Text #7
  260. ID                                       : 15
  261. Format                                   : PGS
  262. Muxing mode                              : zlib
  263. Codec ID                                 : S_HDMV/PGS
  264. Codec ID/Info                            : Picture based subtitle format used on BDs/HD-DVDs
  265. Duration                                 : 1 h 18 min
  266. Bit rate                                 : 40.0 kb/s
  267. Count of elements                        : 2379
  268. Stream size                              : 22.4 MiB (0%)
  269. Title                                    : Norwegian-PGS
  270. Language                                 : Norwegian
  271. Default                                  : No
  272. Forced                                   : No
  273. Text #8
  274. ID                                       : 16
  275. Format                                   : PGS
  276. Muxing mode                              : zlib
  277. Codec ID                                 : S_HDMV/PGS
  278. Codec ID/Info                            : Picture based subtitle format used on BDs/HD-DVDs
  279. Duration                                 : 1 h 18 min
  280. Bit rate                                 : 40.6 kb/s
  281. Count of elements                        : 2393
  282. Stream size                              : 22.7 MiB (0%)
  283. Title                                    : Swedish-PGS
  284. Language                                 : Swedish
  285. Default                                  : No
  286. Forced                                   : No
  287. Text #9
  288. ID                                       : 17
  289. Format                                   : PGS
  290. Muxing mode                              : zlib
  291. Codec ID                                 : S_HDMV/PGS
  292. Codec ID/Info                            : Picture based subtitle format used on BDs/HD-DVDs
  293. Duration                                 : 55 min 51 s
  294. Bit rate                                 : 467 b/s
  295. Count of elements                        : 22
  296. Stream size                              : 191 KiB (0%)
  297. Title                                    : French-FORCED-PGS
  298. Language                                 : French
  299. Default                                  : No
  300. Forced                                   : No
  301. Text #10
  302. ID                                       : 18
  303. Format                                   : PGS
  304. Muxing mode                              : zlib
  305. Codec ID                                 : S_HDMV/PGS
  306. Codec ID/Info                            : Picture based subtitle format used on BDs/HD-DVDs
  307. Duration                                 : 52 min 20 s
  308. Bit rate                                 : 444 b/s
  309. Count of elements                        : 18
  310. Stream size                              : 171 KiB (0%)
  311. Title                                    : Danish-FORCED-PGS
  312. Language                                 : Danish
  313. Default                                  : No
  314. Forced                                   : No
  315. Text #11
  316. ID                                       : 19
  317. Format                                   : PGS
  318. Muxing mode                              : zlib
  319. Codec ID                                 : S_HDMV/PGS
  320. Codec ID/Info                            : Picture based subtitle format used on BDs/HD-DVDs
  321. Duration                                 : 55 min 51 s
  322. Bit rate                                 : 442 b/s
  323. Count of elements                        : 22
  324. Stream size                              : 181 KiB (0%)
  325. Title                                    : Finnish-FORCED-PGS
  326. Language                                 : Finnish
  327. Default                                  : No
  328. Forced                                   : No
  329. Text #12
  330. ID                                       : 20
  331. Format                                   : PGS
  332. Muxing mode                              : zlib
  333. Codec ID                                 : S_HDMV/PGS
  334. Codec ID/Info                            : Picture based subtitle format used on BDs/HD-DVDs
  335. Duration                                 : 52 min 6 s
  336. Bit rate                                 : 300 b/s
  337. Count of elements                        : 14
  338. Stream size                              : 115 KiB (0%)
  339. Title                                    : Norwegian-FORCED-PGS
  340. Language                                 : Norwegian
  341. Default                                  : No
  342. Forced                                   : No
  343. Text #13
  344. ID                                       : 21
  345. Format                                   : PGS
  346. Muxing mode                              : zlib
  347. Codec ID                                 : S_HDMV/PGS
  348. Codec ID/Info                            : Picture based subtitle format used on BDs/HD-DVDs
  349. Duration                                 : 39 s 644 ms
  350. Bit rate                                 : 6 243 b/s
  351. Count of elements                        : 4
  352. Stream size                              : 30.2 KiB (0%)
  353. Title                                    : Swedish-FORCED-PGS
  354. Language                                 : Swedish
  355. Default                                  : No
  356. Forced                                   : No
  357. Text #14
  358. ID                                       : 22
  359. Format                                   : PGS
  360. Muxing mode                              : zlib
  361. Codec ID                                 : S_HDMV/PGS
  362. Codec ID/Info                            : Picture based subtitle format used on BDs/HD-DVDs
  363. Duration                                 : 52 min 6 s
  364. Bit rate                                 : 77 b/s
  365. Count of elements                        : 4
  366. Stream size                              : 29.7 KiB (0%)
  367. Title                                    : German-FORCED-PGS
  368. Language                                 : German
  369. Default                                  : No
  370. Forced                                   : No
  371. Menu
  372. 00:00:00.000                             : en:Chapter 01
  373. 00:10:28.544                             : en:Chapter 02
  374. 00:19:00.722                             : en:Chapter 03
  375. 00:30:51.349                             : en:Chapter 04
  376. 00:38:06.617                             : en:Chapter 05
  377. 00:48:50.969                             : en:Chapter 06
  378. 00:58:50.944                             : en:Chapter 07
  379. 01:11:20.859                             : en:Chapter 08
  380. 01:15:15.636                             : en:Chapter 09
复制代码






                                       
                                       

                                       
                                       
                                       




回复

使用道具 举报

懒得打字嘛,点击右侧快捷回复 【右侧内容,后台自定义】
您需要登录后才可以回帖 登录 | 立即加入

本版积分规则

Archiver|小黑屋| 蓝光电影网 |网站地图

Copyright © 2021 Comsenz Inc. Powered by 蓝光电影网

蓝光电影网

本站内容由用户自主分享和转载自互联网,转载目的在于传递更多信息,并不代表本网赞同其观点和对其真实性负责。

如有侵权、违反国家法律政策行为,请联系我们,我们会第一时间及时清除和处理!

举报反馈邮箱:[email protected]

快速回复 返回顶部 返回列表