找回密码

蓝光电影网

查看: 17|回复: 0

[动作] 哥斯拉大战机械哥斯拉/哥斯拉再战机械哥斯拉 Godzilla.Against.Mechagodzilla.2002.1080p.BluRay.x264-PHOBOS 7.66GB

[复制链接]
蓝光币
511
发表于 2019-8-15 03:49:07 | 显示全部楼层 |阅读模式


◎译  名 哥斯拉大战机械哥斯拉 / 哥斯拉再战机械哥斯拉 / 酷斯拉大战机械酷斯拉
◎片  名 ゴジラ×メカゴジラ
◎年  代 2002
◎产  地 日本
◎类  别 行动 / 科幻 / 惊悚 / 可骇
◎语  言 日语
◎上映日期 2002-12-14(日本)
◎IMDb评分  6.7/10 from 3539 users
◎IMDb链接  http://www.imdb.com/title/tt0314111
◎豆瓣评分 6.3/10 from 632 users
◎豆瓣链接 https://movie.douban.com/subject/1962234/
◎片  长 88 分钟
◎导  演 手塚昌明 Masaaki Tezuka
◎编  剧 三村渉
◎主  演 释由美子 Yumiko Shaku
       宅麻伸 Takuma Shin
       小野寺華那
       谷原章介 Sh?suke Tanihara

◎标  签 哥斯拉 | 日本 | 科幻 | 日本电影 | 特摄 | 2002 | 灾难 | 电影
◎简  介  
  第三天下的外星人想要侵犯地球,因而他们缔造了机械哥吉拉来作为他们侵犯地球的兵器,可是地球的豪杰哥吉拉以及传闻中的保护神西撒王,为了地球人的战争及平安,勇敢的匹敌恶势力。哥吉拉终究不负人类的期望,摧了机械哥吉拉,破坏了外星人想占据地球的美梦,地球又规复了战争。
  (以下为条目草创人注)
  我记得是人类制造了机械哥斯拉,以匹敌哥斯拉,构造其暴行。可由于机械故障,初战击退哥斯拉的机械哥斯拉居然不受控制,疯了!终极,不知何人(大概哥斯拉)使暴走的机械哥斯拉停了下来。
  影片留给观众的思考,即是人类聪明缔造出的高端产物,究竟是福还是祸。
  1. Video
  2. ID                                       : 1
  3. Format                                   : AVC
  4. Format/Info                              : Advanced Video Codec
  5. Format profile                           : [email protected]
  6. Format settings                          : CABAC / 5 Ref Frames
  7. Format settings, CABAC                   : Yes
  8. Format settings, Reference frames        : 5 frames
  9. Codec ID                                 : V_MPEG4/ISO/AVC
  10. Duration                                 : 1 h 28 min
  11. Bit rate                                 : 9 397 kb/s
  12. Width                                    : 1 920 pixels
  13. Height                                   : 824 pixels
  14. Display aspect ratio                     : 2.35:1
  15. Frame rate mode                          : Constant
  16. Frame rate                               : 23.976 (24000/1001) FPS
  17. Color space                              : YUV
  18. Chroma subsampling                       : 4:2:0
  19. Bit depth                                : 8 bits
  20. Scan type                                : Progressive
  21. Bits/(Pixel*Frame)                       : 0.248
  22. Stream size                              : 5.79 GiB (76%)
  23. Writing library                          : x264 core 142 r2453 ea0ca51
  24. Encoding settings                        : cabac=1 / ref=5 / deblock=1:0:0 / analyse=0x3:0x113 / me=umh / subme=8 / psy=1 / psy_rd=1.00:0.00 / mixed_ref=1 / me_range=16 / chroma_me=1 / trellis=1 / 8x8dct=1 / cqm=0 / deadzone=21,11 / fast_pskip=1 / chroma_qp_offset=-2 / threads=12 / lookahead_threads=2 / sliced_threads=0 / nr=0 / decimate=1 / interlaced=0 / bluray_compat=0 / constrained_intra=0 / bframes=3 / b_pyramid=2 / b_adapt=2 / b_bias=0 / direct=3 / weightb=1 / open_gop=0 / weightp=2 / keyint=240 / keyint_min=23 / scenecut=40 / intra_refresh=0 / rc_lookahead=50 / rc=2pass / mbtree=1 / bitrate=9397 / ratetol=1.0 / qcomp=0.60 / qpmin=0 / qpmax=69 / qpstep=4 / cplxblur=20.0 / qblur=0.5 / ip_ratio=1.40 / aq=1:1.00
  25. Language                                 : English
  26. Default                                  : Yes
  27. Forced                                   : No
  28. Audio #1
  29. ID                                       : 2
  30. Format                                   : DTS
  31. Format/Info                              : Digital Theater Systems
  32. Codec ID                                 : A_DTS
  33. Duration                                 : 1 h 28 min
  34. Bit rate mode                            : Constant
  35. Bit rate                                 : 1 509 kb/s
  36. Channel(s)                               : 6 channels
  37. Channel layout                           : C L R Ls Rs LFE
  38. Sampling rate                            : 48.0 kHz
  39. Frame rate                               : 93.750 FPS (512 SPF)
  40. Bit depth                                : 24 bits
  41. Compression mode                         : Lossy
  42. Stream size                              : 953 MiB (12%)
  43. Language                                 : Japanese
  44. Default                                  : Yes
  45. Forced                                   : No
  46. Audio #2
  47. ID                                       : 3
  48. Format                                   : DTS
  49. Format/Info                              : Digital Theater Systems
  50. Codec ID                                 : A_DTS
  51. Duration                                 : 1 h 28 min
  52. Bit rate mode                            : Constant
  53. Bit rate                                 : 1 509 kb/s
  54. Channel(s)                               : 6 channels
  55. Channel layout                           : C L R Ls Rs LFE
  56. Sampling rate                            : 48.0 kHz
  57. Frame rate                               : 93.750 FPS (512 SPF)
  58. Bit depth                                : 24 bits
  59. Compression mode                         : Lossy
  60. Stream size                              : 953 MiB (12%)
  61. Language                                 : English
  62. Default                                  : No
  63. Forced                                   : No
  64. Text
  65. ID                                       : 4
  66. Format                                   : UTF-8
  67. Codec ID                                 : S_TEXT/UTF8
  68. Codec ID/Info                            : UTF-8 Plain Text
  69. Duration                                 : 1 h 27 min
  70. Bit rate                                 : 41 b/s
  71. Count of elements                        : 755
  72. Stream size                              : 26.6 KiB (0%)
  73. Language                                 : English
  74. Default                                  : Yes
  75. Forced                                   : No
复制代码






                                       
                                       

                                       
                                       
                                       




回复

使用道具 举报

懒得打字嘛,点击右侧快捷回复 【右侧内容,后台自定义】
您需要登录后才可以回帖 登录 | 立即加入

本版积分规则

Archiver|小黑屋| 蓝光电影网 |网站地图

Copyright © 2021 Comsenz Inc. Powered by 蓝光电影网

蓝光电影网

本站内容由用户自主分享和转载自互联网,转载目的在于传递更多信息,并不代表本网赞同其观点和对其真实性负责。

如有侵权、违反国家法律政策行为,请联系我们,我们会第一时间及时清除和处理!

举报反馈邮箱:[email protected]

快速回复 返回顶部 返回列表