找回密码

蓝光电影网

查看: 17|回复: 0

[喜剧] 风流债 Casanova.Brown.1944.1080p.BluRay.REMUX.AVC.DTS-HD.MA.2.0-FGT 20.88GB

[复制链接]
蓝光币
511
发表于 2019-7-28 11:42:57 | 显示全部楼层 |阅读模式


◎译  名 风骚债
◎片  名 Casanova Brown
◎年  代 1944
◎产  地 美国
◎类  别 笑剧
◎语  言 英语
◎上映日期 1944-09-14
◎IMDb评分  6.3/10 from 826 users
◎IMDb链接  http://www.imdb.com/title/tt0036699
◎豆瓣评分 0/10 from 0 users
◎豆瓣链接 https://movie.douban.com/subject/1305889/
◎片  长 94 分钟
◎导  演 山姆·伍德 Sam Wood
◎编  剧 Floyd Dell / 农纳利·约翰逊 Nunnally Johnson / 托马斯·米切尔 Thomas Mitchell
◎主  演 加里.库柏
      特蕾莎.怀特

◎标  签 风骚债 | 美国电影 | 加里.库柏 | GaryCooper | 山姆.伍德 | 1940s | 笑剧 | —1940s
◎简  介  
  暂无相关剧情先容
◎获奖情况  
  第17届奥斯卡金像奖(1945)
  最好录音(提名) 托马斯·T·莫尔顿
  黑白片最好艺术指导和室内布景(提名) Perry Ferguson / Julia Heron
  剧情/笑剧片最好配乐(提名) Arthur Lange

  1. Video
  2. ID                                       : 1
  3. Format                                   : AVC
  4. Format/Info                              : Advanced Video Codec
  5. Format profile                           : [email protected]
  6. Format settings                          : CABAC / 4 Ref Frames
  7. Format settings, CABAC                   : Yes
  8. Format settings, Reference frames        : 4 frames
  9. Codec ID                                 : V_MPEG4/ISO/AVC
  10. Duration                                 : 1 h 31 min
  11. Bit rate mode                            : Variable
  12. Bit rate                                 : 30.8 Mb/s
  13. Maximum bit rate                         : 35.0 Mb/s
  14. Width                                    : 1 920 pixels
  15. Height                                   : 1 080 pixels
  16. Display aspect ratio                     : 16:9
  17. Frame rate mode                          : Constant
  18. Frame rate                               : 23.976 (24000/1001) FPS
  19. Color space                              : YUV
  20. Chroma subsampling                       : 4:2:0
  21. Bit depth                                : 8 bits
  22. Scan type                                : Progressive
  23. Bits/(Pixel*Frame)                       : 0.620
  24. Stream size                              : 19.7 GiB (94%)
  25. Title                                    : Casanova.Brown.1944.1080p.BluRay.REMUX.AVC.DTS-HD.MA.2.0-FGT
  26. Language                                 : English
  27. Default                                  : No
  28. Forced                                   : No
  29. Audio
  30. ID                                       : 2
  31. Format                                   : DTS XLL
  32. Format/Info                              : Digital Theater Systems
  33. Commercial name                          : DTS-HD Master Audio
  34. Codec ID                                 : A_DTS
  35. Duration                                 : 1 h 31 min
  36. Bit rate mode                            : Variable
  37. Bit rate                                 : 1 842 kb/s
  38. Channel(s)                               : 2 channels
  39. Channel layout                           : L R
  40. Sampling rate                            : 48.0 kHz
  41. Frame rate                               : 93.750 FPS (512 SPF)
  42. Bit depth                                : 24 bits
  43. Compression mode                         : Lossless
  44. Stream size                              : 1.18 GiB (6%)
  45. Title                                    : Casanova.Brown.1944.1080p.BluRay.REMUX.AVC.DTS-HD.MA.2.0-FGT
  46. Language                                 : English
  47. Default                                  : Yes
  48. Forced                                   : No
  49. Text
  50. ID                                       : 3
  51. Format                                   : PGS
  52. Muxing mode                              : zlib
  53. Codec ID                                 : S_HDMV/PGS
  54. Codec ID/Info                            : Picture based subtitle format used on BDs/HD-DVDs
  55. Duration                                 : 1 h 29 min
  56. Bit rate                                 : 79.9 kb/s
  57. Count of elements                        : 3268
  58. Stream size                              : 51.2 MiB (0%)
  59. Title                                    : English-PGS
  60. Language                                 : English
  61. Default                                  : Yes
  62. Forced                                   : No
  63. Menu
  64. 00:00:00.000                             : en:Chapter 01
  65. 00:01:16.159                             : en:Chapter 02
  66. 00:07:59.937                             : en:Chapter 03
  67. 00:14:18.399                             : en:Chapter 04
  68. 00:18:38.450                             : en:Chapter 05
  69. 00:24:06.319                             : en:Chapter 06
  70. 00:32:58.184                             : en:Chapter 07
  71. 00:36:45.578                             : en:Chapter 08
  72. 00:47:46.655                             : en:Chapter 09
  73. 00:55:01.506                             : en:Chapter 10
  74. 01:01:27.058                             : en:Chapter 11
  75. 01:09:28.164                             : en:Chapter 12
  76. 01:13:11.303                             : en:Chapter 13
  77. 01:18:11.895                             : en:Chapter 14
  78. 01:21:35.140                             : en:Chapter 15
  79. 01:31:23.102                             : en:Chapter 16
复制代码






                                       
                                       

                                       
                                       
                                       




回复

使用道具 举报

懒得打字嘛,点击右侧快捷回复 【右侧内容,后台自定义】
您需要登录后才可以回帖 登录 | 立即加入

本版积分规则

Archiver|小黑屋| 蓝光电影网 |网站地图

Copyright © 2021 Comsenz Inc. Powered by 蓝光电影网

蓝光电影网

本站内容由用户自主分享和转载自互联网,转载目的在于传递更多信息,并不代表本网赞同其观点和对其真实性负责。

如有侵权、违反国家法律政策行为,请联系我们,我们会第一时间及时清除和处理!

举报反馈邮箱:[email protected]

快速回复 返回顶部 返回列表