找回密码

蓝光电影网

查看: 19|回复: 0

[喜剧] 皮靴新娘 The.Bride.Wore.Boots.1946.1080p.BluRay.x264-HANDJOB 6.72GB

[复制链接]
蓝光币
515
发表于 2020-11-26 09:38:59 | 显示全部楼层 |阅读模式


◎译  名 皮靴新娘
◎片  名 The Bride Wore Boots
◎年  代 1946
◎产  地 美国
◎类  别 笑剧 / 恋爱
◎语  言 英语
◎上映日期 1947-01-11
◎IMDb评分  6.2/10 from 334 users
◎IMDb链接  https://www.imdb.com/title/tt0038383/
◎豆瓣评分 /10 from 0 users
◎豆瓣链接 https://movie.douban.com/subject/4906792/
◎片  长 85 分钟
◎导  演 欧文·皮切尔 Irving Pichel
◎编  剧 哈里·西格尔 Harry Segall / Dwight Mitchell Wiley
◎主  演 Gregory Marshall
       James Millican
       弗兰克奥思 Frank Orth
       Alice Keating
       Milton Kibbee
       Forbes Murray
       Robert H. Purcell
       米内尔娃·尤雷卡尔 Minerva Urecal
       佩吉·伍德 Peggy Wood
       玛丽杨 Mary Young
       艾达摩尔 Ida Moore
       哈里·海登 Harry Hayden
       理查德·盖恩斯 Richard Gaines
       Eula Guy
       芭芭拉·斯坦威克 Barbara Stanwyck
       戴安娜·琳 Diana Lynn
       帕垂克·诺尔斯 Patric Knowles
       罗伯特·本奇利 Robert Benchley
       乔治·梅尔福德 George Melford
       沃尔特·鲍德温 Walter Baldwin
       Willie Best
       梅·布希 Mae Busch
       Catherine Craig
       查尔斯·D·布朗 Charles D. Brown
       罗伯特·卡明斯 Robert Cummings
       Steve Darrell
       Aminta Dyne
       Gertrude Hoffman
       Henry Hastings
       Mildred Gover
       娜塔莉·伍德 Natalie Wood
◎标  签 BarbaraStanwyck | 1940s | 笑剧 | 美国 | 黑白长片 | 老电影 | 美影 | 美國
◎简  介


  A bookish historian is married to a steely Southern belle who raises horses, an animal that he doesn't care for. However, the cute young neighbor girl doesn't feel that way about him and makes no bones about letting him know it.
  1. Video
  2. ID                                       : 1
  3. Format                                   : AVC
  4. Format/Info                              : Advanced Video Codec
  5. Format profile                           : [email protected]
  6. Format settings                          : CABAC / 5 Ref Frames
  7. Format settings, CABAC                   : Yes
  8. Format settings, Reference frames        : 5 frames
  9. Codec ID                                 : V_MPEG4/ISO/AVC
  10. Duration                                 : 1 h 26 min
  11. Bit rate                                 : 10.9 Mb/s
  12. Width                                    : 1 460 pixels
  13. Height                                   : 1 080 pixels
  14. Display aspect ratio                     : 4:3
  15. Frame rate mode                          : Constant
  16. Frame rate                               : 23.976 (24000/1001/189150) FPS
  17. Color space                              : YUV
  18. Chroma subsampling                       : 4:2:0
  19. Bit depth                                : 8 bits
  20. Scan type                                : Progressive
  21. Bits/(Pixel*Frame)                       : 0.287
  22. Stream size                              : 6.55 GiB (98%)
  23. Writing library                          : x264 core 148
  24. Encoding settings                        : cabac=1 / ref=5 / deblock=1:-3:-3 / analyse=0x3:0x133 / me=umh / subme=10 / psy=1 / psy_rd=1.00:0.00 / mixed_ref=1 / me_range=32 / chroma_me=1 / trellis=2 / 8x8dct=1 / cqm=0 / deadzone=21,11 / fast_pskip=0 / chroma_qp_offset=-2 / threads=12 / lookahead_threads=3 / sliced_threads=0 / nr=0 / decimate=0 / interlaced=0 / bluray_compat=0 / constrained_intra=0 / bframes=16 / b_pyramid=2 / b_adapt=2 / b_bias=0 / direct=3 / weightb=1 / open_gop=0 / weightp=2 / keyint=240 / keyint_min=24 / scenecut=40 / intra_refresh=0 / rc_lookahead=60 / rc=crf / mbtree=0 / crf=20.8 / qcomp=0.60 / qpmin=0 / qpmax=69 / qpstep=4 / vbv_maxrate=62500 / vbv_bufsize=78125 / crf_max=0.0 / nal_hrd=none / filler=0 / ip_ratio=1.40 / pb_ratio=1.30 / aq=2:1.00
  25. Default                                  : Yes
  26. Forced                                   : No
  27. Color range                              : Limited
  28. Color primaries                          : BT.709
  29. Transfer characteristics                 : BT.709
  30. Matrix coefficients                      : BT.709
  31. Audio
  32. ID                                       : 2
  33. Format                                   : FLAC
  34. Format/Info                              : Free Lossless Audio Codec
  35. Codec ID                                 : A_FLAC
  36. Duration                                 : 1 h 26 min
  37. Bit rate mode                            : Variable
  38. Bit rate                                 : 268 kb/s
  39. Channel(s)                               : 2 channels
  40. Sampling rate                            : 48.0 kHz
  41. Frame rate                               : 11.719 FPS (4096 SPF)
  42. Bit depth                                : 16 bits
  43. Compression mode                         : Lossless
  44. Stream size                              : 166 MiB (2%)
  45. Writing library                          : libFLAC 1.2.1 (UTC 2007-09-17)
  46. Language                                 : English
  47. Default                                  : Yes
  48. Forced                                   : No
  49. Text
  50. ID                                       : 3
  51. Format                                   : UTF-8
  52. Codec ID                                 : S_TEXT/UTF8
  53. Codec ID/Info                            : UTF-8 Plain Text
  54. Duration                                 : 1 h 24 min
  55. Bit rate                                 : 98 b/s
  56. Count of elements                        : 1703
  57. Stream size                              : 61.0 KiB (0%)
  58. Language                                 : English
  59. Default                                  : No
  60. Forced                                   : No
  61. Menu
  62. 00:00:00.000                             : en:Chapter 00
  63. 00:07:09.220                             : en:Chapter 01
  64. 00:16:37.287                             : en:Chapter 02
  65. 00:27:18.595                             : en:Chapter 03
  66. 00:40:58.747                             : en:Chapter 04
  67. 00:53:55.106                             : en:Chapter 05
  68. 01:02:51.893                             : en:Chapter 06
  69. 01:13:23.816                             : en:Chapter 07
复制代码






                                       
                                       

                                       
                                       
                                       




回复

使用道具 举报

懒得打字嘛,点击右侧快捷回复 【右侧内容,后台自定义】
您需要登录后才可以回帖 登录 | 立即加入

本版积分规则

Archiver|小黑屋| 蓝光电影网 |网站地图

Copyright © 2021 Comsenz Inc. Powered by 蓝光电影网

蓝光电影网

本站内容由用户自主分享和转载自互联网,转载目的在于传递更多信息,并不代表本网赞同其观点和对其真实性负责。

如有侵权、违反国家法律政策行为,请联系我们,我们会第一时间及时清除和处理!

举报反馈邮箱:[email protected]

快速回复 返回顶部 返回列表