找回密码

蓝光电影网

查看: 59|回复: 0

[动作] 征服 Vanquish.2021.1080p.BluRay.REMUX.AVC.DTS-HD.MA.5.1-FGT 19.58GB

[复制链接]
蓝光币
511
发表于 2021-4-21 23:31:48 | 显示全部楼层 |阅读模式


◎译  名 征服/The Longest Night/恶夜杀神(台)
◎片  名 Vanquish
◎年  代 2021
◎产  地 美国
◎类  别 行动 / 惊悚 / 犯罪
◎语  言 英语
◎上映日期 2021-04-23(美国)
◎IMDb评分  2.4/10 from 836 users
◎IMDb链接  https://www.imdb.com/title/tt5932368/
◎豆瓣评分 /10 from 0 users
◎豆瓣链接 https://movie.douban.com/subject/35203597/
◎导  演 乔治·加洛 George Gallo
◎编  剧 乔治·加洛 George Gallo
◎主  演 鲁比·罗丝 Ruby Rose
       摩根·弗里曼 Morgan Freeman
       帕特里克·茂顿 Patrick Muldoon
       Julie Lott
       尼克·瓦莱隆加 Nick Vallelonga
       乔尔·迈克利 Joel Michaely
       迈尔斯·多莱克 Miles Doleac
       克里斯?穆利纳克斯 Chris Mullinax
       保罗·辛普森 Paul Sampson
       埃莱·巴德汉 Ele Bardha
       伊万·高蒂尔 Yvan Gauthier
◎标  签 美国 | 犯罪 | 行动 | 摩根·弗里曼 | 2021 | 鲁比·罗丝 | 惊悚 | 美国电影
◎简  介


  摩根·弗里曼、鲁比·罗丝将主演行动惊悚片[征服](Vanquish,暂译)。乔治·加洛([中心人])执导,加洛与Samuel Bartlett配合操刀剧本。弗里曼饰演一位退休的差人局长,他经过绑架他的看护人(罗丝)的女儿来勒索她,迫使她帮助他,欺骗他败北的差人团队,诡计清算整座城市。该片已在密西西比州比洛克西开拍。
  1. Video
  2. ID                                       : 1
  3. ID in the original source medium         : 4113 (0x1011)
  4. Format                                   : AVC
  5. Format/Info                              : Advanced Video Codec
  6. Format profile                           : [email protected]
  7. Format settings                          : CABAC / 4 Ref Frames
  8. Format settings, CABAC                   : Yes
  9. Format settings, Reference frames        : 4 frames
  10. Codec ID                                 : V_MPEG4/ISO/AVC
  11. Duration                                 : 1 h 34 min
  12. Bit rate mode                            : Variable
  13. Bit rate                                 : 25.7 Mb/s
  14. Maximum bit rate                         : 37.0 Mb/s
  15. Width                                    : 1 920 pixels
  16. Height                                   : 1 080 pixels
  17. Display aspect ratio                     : 16:9
  18. Frame rate mode                          : Constant
  19. Frame rate                               : 23.976 (24000/1001/189150) FPS
  20. Color space                              : YUV
  21. Chroma subsampling                       : 4:2:0
  22. Bit depth                                : 8 bits
  23. Scan type                                : Progressive
  24. Bits/(Pixel*Frame)                       : 0.518
  25. Stream size                              : 16.9 GiB (86%)
  26. Language                                 : English
  27. Default                                  : No
  28. Forced                                   : No
  29. Original source medium                   : Blu-ray
  30. Audio #1
  31. ID                                       : 2
  32. ID in the original source medium         : 4352 (0x1100)
  33. Format                                   : DTS XLL
  34. Format/Info                              : Digital Theater Systems
  35. Commercial name                          : DTS-HD Master Audio
  36. Codec ID                                 : A_DTS
  37. Duration                                 : 1 h 34 min
  38. Bit rate mode                            : Variable
  39. Bit rate                                 : 3 801 kb/s
  40. Channel(s)                               : 6 channels
  41. Channel layout                           : C L R Ls Rs LFE
  42. Sampling rate                            : 48.0 kHz
  43. Frame rate                               : 93.750 FPS (512 SPF)
  44. Bit depth                                : 24 bits
  45. Compression mode                         : Lossless
  46. Stream size                              : 2.50 GiB (13%)
  47. Title                                    : DTS-HD MA 5.1
  48. Language                                 : English
  49. Default                                  : Yes
  50. Forced                                   : No
  51. Original source medium                   : Blu-ray
  52. Audio #2
  53. ID                                       : 3
  54. ID in the original source medium         : 4353 (0x1101)
  55. Format                                   : AC-3
  56. Format/Info                              : Audio Coding 3
  57. Commercial name                          : Dolby Digital
  58. Codec ID                                 : A_AC3
  59. Duration                                 : 1 h 34 min
  60. Bit rate mode                            : Constant
  61. Bit rate                                 : 192 kb/s
  62. Channel(s)                               : 2 channels
  63. Channel layout                           : L R
  64. Sampling rate                            : 48.0 kHz
  65. Frame rate                               : 31.250 FPS (1536 SPF)
  66. Compression mode                         : Lossy
  67. Stream size                              : 129 MiB (1%)
  68. Title                                    : DD 2.0
  69. Language                                 : English
  70. Service kind                             : Complete Main
  71. Default                                  : No
  72. Forced                                   : No
  73. Original source medium                   : Blu-ray
  74. Text #1
  75. ID                                       : 4
  76. Format                                   : UTF-8
  77. Codec ID                                 : S_TEXT/UTF8
  78. Codec ID/Info                            : UTF-8 Plain Text
  79. Duration                                 : 1 h 30 min
  80. Bit rate                                 : 34 b/s
  81. Count of elements                        : 953
  82. Stream size                              : 23.2 KiB (0%)
  83. Title                                    : English-SRT
  84. Language                                 : English
  85. Default                                  : Yes
  86. Forced                                   : No
  87. Text #2
  88. ID                                       : 5
  89. ID in the original source medium         : 4608 (0x1200)
  90. Format                                   : PGS
  91. Muxing mode                              : zlib
  92. Codec ID                                 : S_HDMV/PGS
  93. Codec ID/Info                            : Picture based subtitle format used on BDs/HD-DVDs
  94. Duration                                 : 1 h 30 min
  95. Bit rate                                 : 26.6 kb/s
  96. Count of elements                        : 2256
  97. Stream size                              : 17.3 MiB (0%)
  98. Title                                    : English-PGS
  99. Language                                 : English
  100. Default                                  : No
  101. Forced                                   : No
  102. Original source medium                   : Blu-ray
  103. Text #3
  104. ID                                       : 6
  105. ID in the original source medium         : 4609 (0x1201)
  106. Format                                   : PGS
  107. Muxing mode                              : zlib
  108. Codec ID                                 : S_HDMV/PGS
  109. Codec ID/Info                            : Picture based subtitle format used on BDs/HD-DVDs
  110. Duration                                 : 1 h 32 min
  111. Bit rate                                 : 20.8 kb/s
  112. Count of elements                        : 1716
  113. Stream size                              : 13.7 MiB (0%)
  114. Title                                    : Spanish-PGS
  115. Language                                 : Spanish
  116. Default                                  : No
  117. Forced                                   : No
  118. Original source medium                   : Blu-ray
  119. Text #4
  120. ID                                       : 7
  121. ID in the original source medium         : 4610 (0x1202)
  122. Format                                   : PGS
  123. Muxing mode                              : zlib
  124. Codec ID                                 : S_HDMV/PGS
  125. Codec ID/Info                            : Picture based subtitle format used on BDs/HD-DVDs
  126. Duration                                 : 1 h 31 min
  127. Bit rate                                 : 20.8 kb/s
  128. Count of elements                        : 1758
  129. Stream size                              : 13.6 MiB (0%)
  130. Title                                    : Portuguese-PGS
  131. Language                                 : Portuguese
  132. Default                                  : No
  133. Forced                                   : No
  134. Original source medium                   : Blu-ray
  135. Text #5
  136. ID                                       : 8
  137. ID in the original source medium         : 4611 (0x1203)
  138. Format                                   : PGS
  139. Muxing mode                              : zlib
  140. Codec ID                                 : S_HDMV/PGS
  141. Codec ID/Info                            : Picture based subtitle format used on BDs/HD-DVDs
  142. Duration                                 : 54 min 19 s
  143. Bit rate                                 : 1 112 b/s
  144. Count of elements                        : 60
  145. Stream size                              : 443 KiB (0%)
  146. Title                                    : English-FORCED-PGS
  147. Language                                 : English
  148. Default                                  : No
  149. Forced                                   : No
  150. Original source medium                   : Blu-ray
  151. Text #6
  152. ID                                       : 9
  153. ID in the original source medium         : 4611 (0x1203)
  154. Format                                   : PGS
  155. Muxing mode                              : zlib
  156. Codec ID                                 : S_HDMV/PGS
  157. Codec ID/Info                            : Picture based subtitle format used on BDs/HD-DVDs
  158. Duration                                 : 54 min 19 s
  159. Bit rate                                 : 1 112 b/s
  160. Count of elements                        : 60
  161. Stream size                              : 443 KiB (0%)
  162. Title                                    : English-FORCED-PGS
  163. Language                                 : English
  164. Default                                  : No
  165. Forced                                   : No
  166. Original source medium                   : Blu-ray
  167. Menu
  168. 00:00:00.000                             : Chapter 01
  169. 00:06:17.460                             : Chapter 02
  170. 00:11:53.087                             : Chapter 03
  171. 00:16:05.089                             : Chapter 04
  172. 00:23:06.051                             : Chapter 05
  173. 00:26:23.540                             : Chapter 06
  174. 00:33:11.531                             : Chapter 07
  175. 00:42:08.943                             : Chapter 08
  176. 00:44:56.235                             : Chapter 09
  177. 00:50:57.137                             : Chapter 10
  178. 00:55:27.449                             : Chapter 11
  179. 01:02:05.388                             : Chapter 12
  180. 01:08:37.279                             : Chapter 13
  181. 01:14:32.926                             : Chapter 14
  182. 01:18:50.183                             : Chapter 15
  183. 01:25:52.105                             : Chapter 16
复制代码





                                       
                                       

                                       
                                       
                                       




回复

使用道具 举报

懒得打字嘛,点击右侧快捷回复 【右侧内容,后台自定义】
您需要登录后才可以回帖 登录 | 立即加入

本版积分规则

Archiver|小黑屋| 蓝光电影网 |网站地图

Copyright © 2021 Comsenz Inc. Powered by 蓝光电影网

蓝光电影网

本站内容由用户自主分享和转载自互联网,转载目的在于传递更多信息,并不代表本网赞同其观点和对其真实性负责。

如有侵权、违反国家法律政策行为,请联系我们,我们会第一时间及时清除和处理!

举报反馈邮箱:[email protected]

快速回复 返回顶部 返回列表