找回密码

蓝光电影网

查看: 70|回复: 0

[动作] 威利的游乐园 Willys.Wonderland.2021.1080p.BluRay.REMUX.AVC.DTS-HD.MA.5.1-FGT 19.57GB

[复制链接]
蓝光币
515
发表于 2021-4-16 13:34:14 | 显示全部楼层 |阅读模式


◎译  名 威利的游乐园/Wally's Wonderland/弑乐园(台)/沃利的游乐园
◎片  名 Willy's Wonderland
◎年  代 2021
◎产  地 美国
◎类  别 行动 / 惊悚 / 可骇
◎语  言 英语,西班牙语
◎上映日期 2021-02-12(美国)
◎IMDb评分  5.5/10 from 9989 users
◎IMDb链接  https://www.imdb.com/title/tt8114980/
◎豆瓣评分 5.5/10 from 2347 users
◎豆瓣链接 https://movie.douban.com/subject/34874527/
◎片  长 88分钟
◎导  演 凯文·刘易斯 Kevin Lewis
◎编  剧 G·O·帕森斯 G.O. Parsons
◎主  演 尼古拉斯·凯奇 Nicolas Cage
       艾米莉·托斯塔 Emily Tosta
       贝丝·格兰特 Beth Grant
       里克·赖茨 Ric Reitz
       克里斯·华纳 Chris Warner
       卡伊·卡德莱茨 Kai Kadlec
       凯丽?考恩 Caylee Cowan
       乔纳森·梅赛德斯 Jonathan Mercedes
       特雷勒·希尔 Terayle Hill
       克里斯蒂安·戴尔格罗索 Christian Delgrosso
       杰西卡·格拉夫斯 Jessica Graves
       泰勒·托尔里 Taylor Towery
       格兰特·克雷默 Grant Cramer
       Lawreen E. Kayl
◎标  签 尼古拉斯·凯奇 | 可骇 | 惊悚 | 美国 | 血腥 | 2021 | 黑色诙谐 | 行动
◎简  介


  尼古拉斯·凯奇饰演的看门人被迫在一个扭曲的游乐园里留宿,在那边他堕入了一场噩梦。当动画脚色们变得栩栩如生时,看门人必须各个攻破,才能活直到早晨并分开游乐园。
  1. Video
  2. ID                                       : 1
  3. ID in the original source medium         : 4113 (0x1011)
  4. Format                                   : AVC
  5. Format/Info                              : Advanced Video Codec
  6. Format profile                           : [email protected]
  7. Format settings                          : CABAC / 4 Ref Frames
  8. Format settings, CABAC                   : Yes
  9. Format settings, Reference frames        : 4 frames
  10. Format settings, GOP                     : M=3, N=12
  11. Codec ID                                 : V_MPEG4/ISO/AVC
  12. Duration                                 : 1 h 28 min
  13. Bit rate mode                            : Variable
  14. Bit rate                                 : 25.7 Mb/s
  15. Maximum bit rate                         : 32.7 Mb/s
  16. Width                                    : 1 920 pixels
  17. Height                                   : 1 080 pixels
  18. Display aspect ratio                     : 16:9
  19. Frame rate mode                          : Constant
  20. Frame rate                               : 23.976 (24000/1001/189150) FPS
  21. Standard                                 : NTSC
  22. Color space                              : YUV
  23. Chroma subsampling                       : 4:2:0
  24. Bit depth                                : 8 bits
  25. Scan type                                : Progressive
  26. Bits/(Pixel*Frame)                       : 0.517
  27. Stream size                              : 15.9 GiB (81%)
  28. Language                                 : English
  29. Default                                  : No
  30. Forced                                   : No
  31. Color range                              : Limited
  32. Color primaries                          : BT.709
  33. Transfer characteristics                 : BT.709
  34. Matrix coefficients                      : BT.709
  35. Original source medium                   : Blu-ray
  36. Audio #1
  37. ID                                       : 2
  38. ID in the original source medium         : 4352 (0x1100)
  39. Format                                   : DTS XLL
  40. Format/Info                              : Digital Theater Systems
  41. Commercial name                          : DTS-HD Master Audio
  42. Codec ID                                 : A_DTS
  43. Duration                                 : 1 h 28 min
  44. Bit rate mode                            : Variable
  45. Bit rate                                 : 3 557 kb/s
  46. Channel(s)                               : 6 channels
  47. Channel layout                           : C L R Ls Rs LFE
  48. Sampling rate                            : 48.0 kHz
  49. Frame rate                               : 93.750 FPS (512 SPF)
  50. Bit depth                                : 24 bits
  51. Compression mode                         : Lossless
  52. Stream size                              : 2.20 GiB (11%)
  53. Title                                    : DTS-HD MA 5.1
  54. Language                                 : English
  55. Default                                  : Yes
  56. Forced                                   : No
  57. Original source medium                   : Blu-ray
  58. Audio #2
  59. ID                                       : 3
  60. ID in the original source medium         : 4353 (0x1101)
  61. Format                                   : PCM
  62. Format settings                          : Little / Signed
  63. Codec ID                                 : A_PCM/INT/LIT
  64. Duration                                 : 1 h 28 min
  65. Bit rate mode                            : Constant
  66. Bit rate                                 : 2 304 kb/s
  67. Channel(s)                               : 2 channels
  68. Sampling rate                            : 48.0 kHz
  69. Frame rate                               : 30.000 FPS (1600 SPF)
  70. Bit depth                                : 24 bits
  71. Stream size                              : 1.43 GiB (7%)
  72. Title                                    : LPCM 2.0
  73. Language                                 : English
  74. Default                                  : No
  75. Forced                                   : No
  76. Original source medium                   : Blu-ray
  77. Text #1
  78. ID                                       : 4
  79. Format                                   : UTF-8
  80. Codec ID                                 : S_TEXT/UTF8
  81. Codec ID/Info                            : UTF-8 Plain Text
  82. Duration                                 : 1 h 27 min
  83. Bit rate                                 : 44 b/s
  84. Count of elements                        : 1054
  85. Stream size                              : 28.6 KiB (0%)
  86. Title                                    : English-SRT
  87. Language                                 : English
  88. Default                                  : Yes
  89. Forced                                   : No
  90. Text #2
  91. ID                                       : 5
  92. ID in the original source medium         : 4608 (0x1200)
  93. Format                                   : PGS
  94. Muxing mode                              : zlib
  95. Codec ID                                 : S_HDMV/PGS
  96. Codec ID/Info                            : Picture based subtitle format used on BDs/HD-DVDs
  97. Duration                                 : 1 h 28 min
  98. Bit rate                                 : 60.0 kb/s
  99. Count of elements                        : 2568
  100. Stream size                              : 37.8 MiB (0%)
  101. Title                                    : English-PGS
  102. Language                                 : English
  103. Default                                  : No
  104. Forced                                   : No
  105. Original source medium                   : Blu-ray
  106. Menu
  107. 00:00:00.000                             : en:Chapter 01
  108. 00:07:18.020                             : en:Chapter 02
  109. 00:14:17.898                             : en:Chapter 03
  110. 00:22:16.668                             : en:Chapter 04
  111. 00:29:59.923                             : en:Chapter 05
  112. 00:37:14.690                             : en:Chapter 06
  113. 00:45:18.966                             : en:Chapter 07
  114. 00:52:48.999                             : en:Chapter 08
  115. 01:00:06.311                             : en:Chapter 09
  116. 01:10:51.038                             : en:Chapter 10
  117. 01:16:46.643                             : en:Chapter 11
  118. 01:23:05.772                             : en:Chapter 12
复制代码






                                       
                                       

                                       
                                       
                                       




回复

使用道具 举报

懒得打字嘛,点击右侧快捷回复 【右侧内容,后台自定义】
您需要登录后才可以回帖 登录 | 立即加入

本版积分规则

Archiver|小黑屋| 蓝光电影网 |网站地图

Copyright © 2021 Comsenz Inc. Powered by 蓝光电影网

蓝光电影网

本站内容由用户自主分享和转载自互联网,转载目的在于传递更多信息,并不代表本网赞同其观点和对其真实性负责。

如有侵权、违反国家法律政策行为,请联系我们,我们会第一时间及时清除和处理!

举报反馈邮箱:[email protected]

快速回复 返回顶部 返回列表