找回密码

蓝光电影网

查看: 34|回复: 0

[剧情] 天才大兵/小卒将军 Biloxi.Blues.1988.1080p.BluRay.REMUX.AVC.DTS-HD.MA.2.0-FGT 16.14GB

[复制链接]
蓝光币
733
发表于 2019-7-21 03:36:25 | 显示全部楼层 |阅读模式


◎译  名 天赋大兵 / 小卒将军
◎片  名 Biloxi Blues
◎年  代 1988
◎产  地 美国
◎类  别 剧情 / 笑剧
◎语  言 英语
◎上映日期 1988-03-25
◎IMDb评分  6.6/10 from 13423 users
◎IMDb链接  http://www.imdb.com/title/tt0094746
◎豆瓣评分 7.6/10 from 162 users
◎豆瓣链接 https://movie.douban.com/subject/1301749/
◎片  长 106 分钟
◎导  演 迈克·尼科尔斯 Mike Nichols
◎编  剧 内尔·西蒙 Neil Simon
◎主  演 马修·布罗德里克 Matthew Broderick
      克里斯托弗·沃肯 Christopher Walken
      Matt Mulhern
      Markus Flanagan
      Corey Parker
      凯西·希玛兹科 Casey Siemaszko

◎标  签 笑剧 | 美国 | 美国电影 | 剧情 | MatthewBroderick | 1988 | 青春 | 1980s
◎简  介  
  高中刚结业的尤金分开故乡纽约布鲁克林,前往密西西比州的新兵练习营,接管十个星期的严酷考验。抱有理想主义的尤金记忆犹新要完成三个胡想:赢得普立兹文学奖;落空童贞;找到梦中情人。练习竣事时,他总算向男人汉的境界跨进了一步。
  1. Video
  2. ID                                       : 1
  3. Format                                   : AVC
  4. Format/Info                              : Advanced Video Codec
  5. Format profile                           : [email protected]
  6. Format settings                          : CABAC / 4 Ref Frames
  7. Format settings, CABAC                   : Yes
  8. Format settings, ReFrames                : 4 frames
  9. Format settings, GOP                     : M=3, N=12
  10. Codec ID                                 : V_MPEG4/ISO/AVC
  11. Duration                                 : 1 h 46 min
  12. Bit rate mode                            : Variable
  13. Bit rate                                 : 19.9 Mb/s
  14. Maximum bit rate                         : 36.0 Mb/s
  15. Width                                    : 1 920 pixels
  16. Height                                   : 1 080 pixels
  17. Display aspect ratio                     : 16:9
  18. Frame rate mode                          : Constant
  19. Frame rate                               : 23.976 (24000/1001) FPS
  20. Color space                              : YUV
  21. Chroma subsampling                       : 4:2:0
  22. Bit depth                                : 8 bits
  23. Scan type                                : Progressive
  24. Bits/(Pixel*Frame)                       : 0.401
  25. Stream size                              : 14.9 GiB (92%)
  26. Title                                    : Biloxi.Blues.1988.1080p.BluRay.REMUX.AVC.DTS-HD.MA.2.0-FGT
  27. Language                                 : English
  28. Default                                  : No
  29. Forced                                   : No
  30. Audio
  31. ID                                       : 2
  32. Format                                   : DTS XLL
  33. Format/Info                              : Digital Theater Systems
  34. Commercial name                          : DTS-HD Master Audio
  35. Codec ID                                 : A_DTS
  36. Duration                                 : 1 h 46 min
  37. Bit rate mode                            : Variable
  38. Bit rate                                 : 1 720 kb/s
  39. Channel(s)                               : 2 channels
  40. Sampling rate                            : 48.0 kHz
  41. Frame rate                               : 93.750 FPS (512 SPF)
  42. Bit depth                                : 16 bits
  43. Compression mode                         : Lossless
  44. Stream size                              : 1.28 GiB (8%)
  45. Title                                    : Biloxi.Blues.1988.1080p.BluRay.REMUX.AVC.DTS-HD.MA.2.0-FGT
  46. Language                                 : English
  47. Default                                  : Yes
  48. Forced                                   : No
  49. Menu
  50. 00:00:00.000                             : en:Chapter 01
  51. 00:08:30.301                             : en:Chapter 02
  52. 00:23:10.847                             : en:Chapter 03
  53. 00:37:38.089                             : en:Chapter 04
  54. 00:49:44.940                             : en:Chapter 05
  55. 00:56:28.051                             : en:Chapter 06
  56. 01:02:55.271                             : en:Chapter 07
  57. 01:10:43.781                             : en:Chapter 08
  58. 01:19:44.196                             : en:Chapter 09
  59. 01:24:51.377                             : en:Chapter 10
  60. 01:32:55.194                             : en:Chapter 11
  61. 01:43:44.468                             : en:Chapter 12
复制代码






                                       
                                       

                                       
                                       
                                       




回复

使用道具 举报

懒得打字嘛,点击右侧快捷回复 【右侧内容,后台自定义】
您需要登录后才可以回帖 登录 | 立即加入

本版积分规则

Archiver|小黑屋| 蓝光电影网 |网站地图

Copyright © 2021 Comsenz Inc. Powered by 蓝光电影网

蓝光电影网

本站内容由用户自主分享和转载自互联网,转载目的在于传递更多信息,并不代表本网赞同其观点和对其真实性负责。

如有侵权、违反国家法律政策行为,请联系我们,我们会第一时间及时清除和处理!

举报反馈邮箱:[email protected]

快速回复 返回顶部 返回列表