找回密码

蓝光电影网

查看: 16|回复: 0

[剧情] 美人局/玉面金刚巧布美人计 Woman.of.Straw.1964.1080p.BluRay.REMUX.AVC.DTS-HD.MA.2.0-FGT 19.43GB

[复制链接]
蓝光币
515
发表于 2019-7-21 03:32:25 | 显示全部楼层 |阅读模式


◎译  名 美人局 / 玉面金适值布美人计 / 玉面金刚布美人计
◎片  名 Woman of Straw
◎年  代 1964
◎产  地 英国
◎类  别 剧情 / 惊悚 / 犯罪
◎语  言 英语
◎上映日期 1964-04-28
◎IMDb评分  6.7/10 from 1441 users
◎IMDb链接  http://www.imdb.com/title/tt0058754
◎豆瓣评分 0/10 from 0 users
◎豆瓣链接 https://movie.douban.com/subject/1304884/
◎片  长 122 分钟
◎导  演 巴兹尔·迪尔登 Basil Dearden
◎编  剧 Catherine Arley / Michael Relph / Robert Muller
◎主  演 吉娜·劳洛勃丽吉达 Gina Lollobrigida
      肖恩·康纳利 Sean Connery
      拉尔夫·理查德森 Ralph Richardson

◎标  签 英国 | 犯罪 | 英国电影 | Sean_Connery | SeanConnery | Basil_Dearden | 1964 | Gina_Lollobrigida
◎简  介  
  Tyrannical but ailing tycoon Charles Richmond becomes very fond of his attractive Italian nurse, Maria. The nurse, in turn, falls in love with Charles' ne'er-do-well nephew Anthony, who plots ways to gain control of his uncle's fortune.
  1. Video
  2. ID                                       : 1
  3. Format                                   : AVC
  4. Format/Info                              : Advanced Video Codec
  5. Format profile                           : [email protected]
  6. Format settings                          : CABAC / 4 Ref Frames
  7. Format settings, CABAC                   : Yes
  8. Format settings, ReFrames                : 4 frames
  9. Codec ID                                 : V_MPEG4/ISO/AVC
  10. Duration                                 : 1 h 57 min
  11. Bit rate mode                            : Variable
  12. Bit rate                                 : 22.0 Mb/s
  13. Maximum bit rate                         : 36.0 Mb/s
  14. Width                                    : 1 920 pixels
  15. Height                                   : 1 080 pixels
  16. Display aspect ratio                     : 16:9
  17. Frame rate mode                          : Constant
  18. Frame rate                               : 23.976 (24000/1001) FPS
  19. Standard                                 : NTSC
  20. Color space                              : YUV
  21. Chroma subsampling                       : 4:2:0
  22. Bit depth                                : 8 bits
  23. Scan type                                : Progressive
  24. Bits/(Pixel*Frame)                       : 0.442
  25. Stream size                              : 18.0 GiB (93%)
  26. Title                                    : Woman.of.Straw.1964.1080p.BluRay.REMUX.AVC.DTS-HD.MA.2.0-FGT
  27. Language                                 : English
  28. Default                                  : No
  29. Forced                                   : No
  30. Color range                              : Limited
  31. Color primaries                          : BT.709
  32. Transfer characteristics                 : BT.709
  33. Matrix coefficients                      : BT.709
  34. Audio
  35. ID                                       : 2
  36. Format                                   : DTS XLL
  37. Format/Info                              : Digital Theater Systems
  38. Commercial name                          : DTS-HD Master Audio
  39. Codec ID                                 : A_DTS
  40. Duration                                 : 1 h 57 min
  41. Bit rate mode                            : Variable
  42. Bit rate                                 : 1 688 kb/s
  43. Channel(s)                               : 2 channels
  44. Channel layout                           : L R
  45. Sampling rate                            : 48.0 kHz
  46. Frame rate                               : 93.750 FPS (512 SPF)
  47. Bit depth                                : 16 bits
  48. Compression mode                         : Lossless
  49. Stream size                              : 1.38 GiB (7%)
  50. Title                                    : Woman.of.Straw.1964.1080p.BluRay.REMUX.AVC.DTS-HD.MA.2.0-FGT
  51. Language                                 : English
  52. Default                                  : Yes
  53. Forced                                   : No
  54. Menu
  55. 00:00:00.000                             : en:Chapter 01
  56. 00:18:24.144                             : en:Chapter 02
  57. 00:27:59.511                             : en:Chapter 03
  58. 00:37:37.838                             : en:Chapter 04
  59. 00:52:27.310                             : en:Chapter 05
  60. 01:07:55.488                             : en:Chapter 06
  61. 01:25:13.316                             : en:Chapter 07
  62. 01:43:49.431                             : en:Chapter 08
复制代码






                                       
                                       

                                       
                                       
                                       




回复

使用道具 举报

懒得打字嘛,点击右侧快捷回复 【右侧内容,后台自定义】
您需要登录后才可以回帖 登录 | 立即加入

本版积分规则

Archiver|小黑屋| 蓝光电影网 |网站地图

Copyright © 2021 Comsenz Inc. Powered by 蓝光电影网

蓝光电影网

本站内容由用户自主分享和转载自互联网,转载目的在于传递更多信息,并不代表本网赞同其观点和对其真实性负责。

如有侵权、违反国家法律政策行为,请联系我们,我们会第一时间及时清除和处理!

举报反馈邮箱:[email protected]

快速回复 返回顶部 返回列表