找回密码

蓝光电影网

查看: 9|回复: 0

[其他] 谋杀/凶手 Murder.1930.1080p.BluRay.X264-AMIABLE 10.94GB

[复制链接]
蓝光币
519
发表于 2020-9-25 10:27:27 | 显示全部楼层 |阅读模式


◎译  名 谋杀/凶手/谋杀者
◎片  名 Murder!
◎年  代 1930
◎产  地 英国
◎类  别 悬疑 / 惊悚 / 犯罪
◎语  言 英语
◎上映日期 1930-07-31
◎IMDb评分  6.4/10 from 5663 users
◎IMDb链接  https://www.imdb.com/title/tt0021165/
◎豆瓣评分 7.1/10 from 698 users
◎豆瓣链接 https://movie.douban.com/subject/1457874/
◎片  长 104 分钟
◎导  演 阿尔弗雷德·希区柯克 Alfred Hitchcock
◎编  剧 阿尔弗雷德·希区柯克 Alfred Hitchcock / 艾玛·雷维尔 Alma Reville / 克莱门丝·戴恩 Clemence Dane / 海伦·辛普森 Helen Simpson
◎主  演 赫伯特·马歇尔 Herbert Marshall
       诺拉·贝琳 Norah Baring
       菲利普康斯塔姆 Phyllis Konstam
       爱德华·查普曼 Edward Chapman
       迈尔斯·曼德 Miles Mander
       S.J. Warmington
       Drusilla Wills
       阿尔弗雷德·希区柯克 Alfred Hitchcock
       尤娜·奥康纳 Una O'Connor
       埃斯米·珀西 Esme Percy
       格斯·麦克诺顿 Gus McNaughton
       Amy Brandon Thomas
       Kenneth Kove
       Guy Pelham Boulton
       唐纳德·卡罗普 Donald Calthrop
       Violet Farebrother
       Clare Greet
◎标  签 希区柯克 | 英国 | 悬疑 | AlfredHitchcock | 1930 | 阿尔弗雷德·希区柯克 | Alfred_Hitchcock | 黑白
◎简  介


  一位女演员被发现在一具尸身的旁边,而她又落空了记忆,似乎没有什么能说明她不是凶手。就在法院认定她有罪并被判正法刑的时辰,仍然有一小我相信她是无辜的,但他可以找出充足的证据解救她吗?
  1. Video
  2. ID                                       : 1
  3. Format                                   : AVC
  4. Format/Info                              : Advanced Video Codec
  5. Format profile                           : [email protected]
  6. Format settings                          : CABAC / 5 Ref Frames
  7. Format settings, CABAC                   : Yes
  8. Format settings, Reference frames        : 5 frames
  9. Codec ID                                 : V_MPEG4/ISO/AVC
  10. Duration                                 : 1 h 42 min
  11. Bit rate                                 : 13.8 Mb/s
  12. Width                                    : 1 456 pixels
  13. Height                                   : 1 080 pixels
  14. Display aspect ratio                     : 4:3
  15. Frame rate mode                          : Constant
  16. Frame rate                               : 23.976 (24000/1001/189150) FPS
  17. Color space                              : YUV
  18. Chroma subsampling                       : 4:2:0
  19. Bit depth                                : 8 bits
  20. Scan type                                : Progressive
  21. Bits/(Pixel*Frame)                       : 0.366
  22. Stream size                              : 9.64 GiB (88%)
  23. Writing library                          : x264 core 158 r2984 3759fcb
  24. Encoding settings                        : cabac=1 / ref=5 / deblock=1:-3:-3 / analyse=0x3:0x113 / me=umh / subme=8 / psy=1 / psy_rd=1.15:0.00 / mixed_ref=1 / me_range=32 / chroma_me=1 / trellis=2 / 8x8dct=1 / cqm=0 / deadzone=21,11 / fast_pskip=1 / chroma_qp_offset=-2 / threads=34 / lookahead_threads=5 / sliced_threads=0 / nr=0 / decimate=1 / interlaced=0 / bluray_compat=0 / constrained_intra=0 / bframes=3 / b_pyramid=2 / b_adapt=2 / b_bias=0 / direct=3 / weightb=1 / open_gop=0 / weightp=2 / keyint=240 / keyint_min=24 / scenecut=40 / intra_refresh=0 / rc_lookahead=50 / rc=2pass / mbtree=1 / bitrate=13789 / ratetol=1.0 / qcomp=0.60 / qpmin=0 / qpmax=69 / qpstep=4 / cplxblur=20.0 / qblur=0.5 / ip_ratio=1.40 / aq=3:0.65
  25. Default                                  : Yes
  26. Forced                                   : No
  27. Statistics Tags Issue                    : no_variable_data 1970-01-01 00:00:00 / no_variable_data 2010-02-22 21:41:29
  28. FromStats_BitRate                        : 13786870
  29. FromStats_Duration                       : 01:42:18.049000000
  30. FromStats_FrameCount                     : 147166
  31. FromStats_StreamSize                     : 10578060986

  32. Audio
  33. ID                                       : 2
  34. Format                                   : DTS
  35. Format/Info                              : Digital Theater Systems
  36. Codec ID                                 : A_DTS
  37. Duration                                 : 1 h 42 min
  38. Bit rate mode                            : Constant
  39. Bit rate                                 : 1 509 kb/s
  40. Channel(s)                               : 2 channels
  41. Channel layout                           : L R
  42. Sampling rate                            : 48.0 kHz
  43. Frame rate                               : 93.750 FPS (512 SPF)
  44. Bit depth                                : 24 bits
  45. Compression mode                         : Lossy
  46. Stream size                              : 1.08 GiB (10%)
  47. Language                                 : English
  48. Default                                  : Yes
  49. Forced                                   : No
  50. Statistics Tags Issue                    : no_variable_data 1970-01-01 00:00:00 / no_variable_data 2010-02-22 21:41:29
  51. FromStats_BitRate                        : 1508999
  52. FromStats_Duration                       : 01:42:18.134000000
  53. FromStats_FrameCount                     : 575450
  54. FromStats_StreamSize                     : 1157805400

  55. Text
  56. ID                                       : 3
  57. Format                                   : UTF-8
  58. Codec ID                                 : S_TEXT/UTF8
  59. Codec ID/Info                            : UTF-8 Plain Text
  60. Language                                 : English
  61. Default                                  : No
  62. Forced                                   : No
  63. Statistics Tags Issue                    : no_variable_data 1970-01-01 00:00:00 / no_variable_data 2010-02-22 21:41:29
  64. FromStats_BitRate                        : 71
  65. FromStats_Duration                       : 01:39:25.376000000
  66. FromStats_FrameCount                     : 1373
  67. FromStats_StreamSize                     : 53464

  68. Menu
  69. 00:00:00.000                             : en:Chapter 01
  70. 00:14:32.206                             : en:Chapter 02
  71. 00:33:59.622                             : en:Chapter 03
  72. 00:43:22.101                             : en:Chapter 04
  73. 00:56:15.957                             : en:Chapter 05
  74. 01:12:33.892                             : en:Chapter 06
  75. 01:22:42.542                             : en:Chapter 07
  76. 01:32:18.826                             : en:Chapter 08
复制代码




                                       
                                       

                                       
                                       
                                       




回复

使用道具 举报

懒得打字嘛,点击右侧快捷回复 【右侧内容,后台自定义】
您需要登录后才可以回帖 登录 | 立即加入

本版积分规则

Archiver|小黑屋| 蓝光电影网 |网站地图

Copyright © 2021 Comsenz Inc. Powered by 蓝光电影网

蓝光电影网

本站内容由用户自主分享和转载自互联网,转载目的在于传递更多信息,并不代表本网赞同其观点和对其真实性负责。

如有侵权、违反国家法律政策行为,请联系我们,我们会第一时间及时清除和处理!

举报反馈邮箱:[email protected]

快速回复 返回顶部 返回列表